<?xml version="1.0" standalone="no"?>
<!DOCTYPE svg PUBLIC "-//W3C//DTD SVG 1.1//EN" "http://www.w3.org/Graphics/SVG/1.1/DTD/svg11.dtd" >
<svg xmlns="http://www.w3.org/2000/svg" xmlns:xlink="http://www.w3.org/1999/xlink" version="1.1">
<metadata></metadata>
<defs>
<font id="pxplus_ibm_vga8regular" horiz-adv-x="1024" >
<font-face units-per-em="2048" ascent="1536" descent="-512" />
<missing-glyph horiz-adv-x="500" />
<glyph />
<glyph />
<glyph unicode="&#xd;" d="M0 0v256h128v128h128v896h768v-384h-512v-768h-128v-128h-384zM512 1024h256v128h-256v-128z" />
<glyph d="M0 128v1024h128v-1024h-128zM128 0v128h768v-128h-768zM128 1152v128h768v-128h-768zM256 512v128h512v-128h-128v-128h-256v128h-128zM256 896v128h128v-128h-128zM640 896v128h128v-128h-128zM896 128v1024h128v-1024h-128z" />
<glyph d="M0 128v1024h128v128h768v-128h128v-1024h-128v-128h-768v128h-128zM256 512h128v-128h256v128h128v128h-512v-128zM256 896h128v128h-128v-128zM640 896h128v128h-128v-128z" />
<glyph d="M0 384v512h128v128h256v-128h128v128h256v-128h128v-512h-128v-128h-128v-128h-128v-128h-128v128h-128v128h-128v128h-128z" />
<glyph d="M0 512v128h128v128h128v128h128v128h128v-128h128v-128h128v-128h128v-128h-128v-128h-128v-128h-128v-128h-128v128h-128v128h-128v128h-128z" />
<glyph d="M0 384v384h256v256h128v128h256v-128h128v-256h256v-384h-384v384h-256v-384h-384zM256 0v128h128v256h256v-256h128v-128h-512z" />
<glyph d="M0 512v256h128v128h128v128h128v128h256v-128h128v-128h128v-128h128v-256h-128v-128h-256v-256h128v-128h-512v128h128v256h-256v128h-128z" />
<glyph d="M256 384v256h128v128h256v-128h128v-256h-128v-128h-256v128h-128z" />
<glyph d="M0 -512v2048h1024v-2048h-1024zM256 384h128v-128h256v128h128v256h-128v128h-256v-128h-128v-256z" />
<glyph unicode="&#x9;" d="M128 256v512h128v128h512v-128h128v-512h-128v-128h-512v128h-128zM256 384h128v-128h256v128h128v256h-128v128h-256v-128h-128v-256z" />
<glyph unicode="&#xa;" d="M0 -512v2048h1024v-2048h-1024zM128 256h128v-128h512v128h128v512h-128v128h-512v-128h-128v-512zM256 384v256h128v128h256v-128h128v-256h-128v-128h-256v128h-128z" />
<glyph d="M0 128v512h128v128h128v128h128v128h128v128h-128v128h512v-512h-128v256h-128v-128h-128v-128h128v-128h128v-512h-128v-128h-512v128h-128zM256 128h256v512h-256v-512z" />
<glyph d="M128 256v128h256v128h-128v128h-128v512h128v128h512v-128h128v-512h-128v-128h-128v-128h256v-128h-256v-256h-256v256h-256zM384 640h256v512h-256v-512z" />
<glyph d="M0 -128v384h128v1024h896v-1152h-128v-128h-256v384h128v512h-384v-896h-128v-128h-256zM384 1024h384v128h-384v-128z" />
<glyph d="M0 256v128h256v-128h-256zM0 512v128h256v128h128v384h256v-384h128v-128h256v-128h-256v-128h-128v-384h-256v384h-128v128h-256zM0 768v128h256v-128h-256zM384 512h256v128h-256v-128zM768 256v128h256v-128h-256zM768 768v128h256v-128h-256z" />
<glyph d="M0 0v1408h128v-128h128v-128h128v-128h128v-128h128v-128h256v-128h-256v-128h-128v-128h-128v-128h-128v-128h-128v-128h-128z" />
<glyph d="M0 640v128h256v128h128v128h128v128h128v128h128v128h128v-1408h-128v128h-128v128h-128v128h-128v128h-128v128h-256z" />
<glyph d="M128 384v128h256v384h-256v128h128v128h128v128h256v-128h128v-128h128v-128h-256v-384h256v-128h-128v-128h-128v-128h-256v128h-128v128h-128z" />
<glyph d="M128 0v256h256v-256h-256zM128 384v896h256v-896h-256zM640 0v256h256v-256h-256zM640 384v896h256v-896h-256z" />
<glyph d="M0 768v384h128v128h896v-1280h-256v1152h-128v-1152h-256v640h-256v128h-128zM256 768h128v384h-128v-384z" />
<glyph d="M0 0v128h256v-128h384v128h-128v128h-256v128h-128v128h-128v256h128v128h128v128h-128v128h-128v128h128v128h640v-128h128v-128h-256v128h-384v-128h128v-128h256v-128h128v-128h128v-256h-128v-128h-128v-128h128v-128h128v-128h-128v-128h-640v128h-128zM256 512h128 v-128h128v128h128v256h-128v128h-128v-128h-128v-256z" />
<glyph d="M0 0v512h896v-512h-896z" />
<glyph d="M128 0v128h256v128h-128v128h-128v128h256v384h-256v128h128v128h128v128h256v-128h128v-128h128v-128h-256v-384h256v-128h-128v-128h-128v-128h256v-128h-768z" />
<glyph d="M128 896v128h128v128h128v128h256v-128h128v-128h128v-128h-256v-896h-256v896h-256z" />
<glyph d="M128 256v128h256v896h256v-896h256v-128h-128v-128h-128v-128h-256v128h-128v128h-128z" />
<glyph d="M0 512v128h512v128h-128v128h256v-128h128v-128h128v-128h-128v-128h-128v-128h-256v128h128v128h-512z" />
<glyph d="M0 512v128h128v128h128v128h256v-128h-128v-128h512v-128h-512v-128h128v-128h-256v128h-128v128h-128z" />
<glyph d="M0 256v512h256v-384h640v-128h-896z" />
<glyph d="M0 512v128h128v128h128v128h128v-256h128v256h128v-128h128v-128h128v-128h-128v-128h-128v-128h-128v256h-128v-256h-128v128h-128v128h-128z" />
<glyph d="M0 128v256h128v256h128v256h128v128h128v-128h128v-256h128v-256h128v-256h-896z" />
<glyph d="M0 768v256h896v-256h-128v-256h-128v-256h-128v-128h-128v128h-128v256h-128v256h-128z" />
<glyph unicode=" " />
<glyph unicode="!" d="M256 768v384h128v128h256v-128h128v-384h-128v-384h-256v384h-128zM384 0v256h256v-256h-256z" />
<glyph unicode="&#x22;" d="M128 1024v384h256v-512h-128v128h-128zM640 896v512h256v-384h-128v-128h-128z" />
<glyph unicode="#" d="M0 256v128h128v384h-128v128h128v256h256v-256h128v256h256v-256h128v-128h-128v-384h128v-128h-128v-256h-256v256h-128v-256h-256v256h-128zM384 384h128v384h-128v-384z" />
<glyph unicode="$" d="M0 128v256h128v-128h128v-128h384v512h-512v128h-128v384h128v128h256v256h256v-256h128v-128h128v-256h-128v128h-128v128h-384v-384h512v-128h128v-512h-128v-128h-128v-256h-256v256h-256v128h-128z" />
<glyph unicode="%" d="M0 0v256h128v128h128v128h128v128h128v128h128v128h128v128h128v-256h-128v-128h-128v-128h-128v-128h-128v-128h-128v-128h-128v-128h-128zM0 768v256h256v-256h-256zM640 0v256h256v-256h-256z" />
<glyph unicode="&#x26;" d="M0 128v512h128v128h128v128h-128v256h128v128h384v-128h128v-256h-128v-128h-128v-128h128v128h256v-128h-128v-512h128v-128h-256v128h-128v384h-128v128h-128v-512h256v-128h-384v128h-128zM384 896h128v256h-128v-256z" />
<glyph unicode="'" d="M128 896v128h128v384h256v-384h-128v-128h-256z" />
<glyph unicode="(" d="M256 256v768h128v128h128v128h256v-128h-128v-128h-128v-768h128v-128h128v-128h-256v128h-128v128h-128z" />
<glyph unicode=")" d="M256 0v128h128v128h128v768h-128v128h-128v128h256v-128h128v-128h128v-768h-128v-128h-128v-128h-256z" />
<glyph unicode="*" d="M0 512v128h256v128h-128v128h256v-128h256v128h256v-128h-128v-128h256v-128h-256v-128h128v-128h-256v128h-256v-128h-256v128h128v128h-256z" />
<glyph unicode="+" d="M128 512v128h256v256h256v-256h256v-128h-256v-256h-256v256h-256z" />
<glyph unicode="," d="M256 0h128v384h256v-384h-128v-128h-256v128z" />
<glyph unicode="-" d="M0 512v128h896v-128h-896z" />
<glyph unicode="." d="M384 0v256h256v-256h-256z" />
<glyph unicode="/" d="M0 0v256h128v128h128v128h128v128h128v128h128v128h128v128h128v-256h-128v-128h-128v-128h-128v-128h-128v-128h-128v-128h-128v-128h-128z" />
<glyph unicode="0" d="M0 256v768h128v128h128v128h384v-128h128v-128h128v-768h-128v-128h-128v-128h-384v128h-128v128h-128zM256 256h128v-128h128v128h128v768h-128v128h-128v-128h-128v-768zM384 512v256h128v-256h-128z" />
<glyph unicode="1" d="M128 0v128h256v768h-256v128h128v128h128v128h256v-1152h256v-128h-768z" />
<glyph unicode="2" d="M0 0v384h128v128h128v128h128v128h128v128h128v256h-384v-128h-256v128h128v128h640v-128h128v-256h-128v-128h-128v-128h-128v-128h-128v-128h-128v-256h384v128h256v-256h-896z" />
<glyph unicode="3" d="M0 128v128h256v-128h384v512h-384v128h384v384h-384v-128h-256v128h128v128h640v-128h128v-384h-128v-128h128v-512h-128v-128h-640v128h-128z" />
<glyph unicode="4" d="M0 512v256h128v128h128v128h128v128h128v128h256v-640h128v-128h-128v-384h128v-128h-512v128h128v384h-512zM256 640h256v256h-128v-128h-128v-128z" />
<glyph unicode="5" d="M0 128v128h256v-128h384v512h-640v640h896v-128h-640v-384h512v-128h128v-512h-128v-128h-640v128h-128z" />
<glyph unicode="6" d="M0 128v896h128v128h128v128h384v-128h-256v-128h-128v-256h512v-128h128v-512h-128v-128h-640v128h-128zM256 128h384v512h-384v-512z" />
<glyph unicode="7" d="M0 1024v256h896v-512h-128v-128h-128v-128h-128v-512h-256v512h128v128h128v128h128v384h-384v-128h-256z" />
<glyph unicode="8" d="M0 128v512h128v128h-128v384h128v128h640v-128h128v-384h-128v-128h128v-512h-128v-128h-640v128h-128zM256 128h384v512h-384v-512zM256 768h384v384h-384v-384z" />
<glyph unicode="9" d="M0 768v384h128v128h640v-128h128v-896h-128v-128h-128v-128h-512v128h384v128h128v384h-512v128h-128zM256 768h384v384h-384v-384z" />
<glyph unicode=":" d="M384 128v256h256v-256h-256zM384 768v256h256v-256h-256z" />
<glyph unicode=";" d="M256 0v128h128v256h256v-256h-128v-128h-256zM384 768v256h256v-256h-256z" />
<glyph unicode="&#x3c;" d="M128 512v128h128v128h128v128h128v128h128v128h256v-128h-128v-128h-128v-128h-128v-128h-128v-128h128v-128h128v-128h128v-128h128v-128h-256v128h-128v128h-128v128h-128v128h-128z" />
<glyph unicode="=" d="M128 384v128h768v-128h-768zM128 768v128h768v-128h-768z" />
<glyph unicode="&#x3e;" d="M128 0v128h128v128h128v128h128v128h128v128h-128v128h-128v128h-128v128h-128v128h256v-128h128v-128h128v-128h128v-128h128v-128h-128v-128h-128v-128h-128v-128h-128v-128h-256z" />
<glyph unicode="?" d="M0 896v256h128v128h640v-128h128v-256h-128v-128h-128v-384h-256v384h128v128h128v256h-384v-256h-256zM384 0v256h256v-256h-256z" />
<glyph unicode="@" d="M0 128v896h128v128h640v-128h128v-640h-128v-128h-384v512h256v256h-384v-896h512v-128h-640v128h-128z" />
<glyph unicode="A" d="M0 0v896h128v128h128v128h128v128h128v-128h128v-128h128v-128h128v-896h-256v512h-384v-512h-256zM256 640h384v256h-128v128h-128v-128h-128v-256z" />
<glyph unicode="B" d="M0 0v128h128v1024h-128v128h768v-128h128v-384h-128v-128h128v-512h-128v-128h-768zM384 128h256v512h-256v-512zM384 768h256v384h-256v-384z" />
<glyph unicode="C" d="M0 256v768h128v128h128v128h512v-128h128v-256h-128v128h-128v128h-256v-128h-128v-768h128v-128h256v128h128v128h128v-256h-128v-128h-512v128h-128v128h-128z" />
<glyph unicode="D" d="M0 0v128h128v1024h-128v128h640v-128h128v-128h128v-768h-128v-128h-128v-128h-640zM384 128h128v128h128v768h-128v128h-128v-1024z" />
<glyph unicode="E" d="M0 0v128h128v1024h-128v128h896v-384h-128v128h-128v128h-256v-384h128v128h128v-384h-128v128h-128v-512h256v128h128v128h128v-384h-896z" />
<glyph unicode="F" d="M0 0v128h128v1024h-128v128h896v-384h-128v128h-128v128h-256v-384h128v128h128v-384h-128v128h-128v-512h128v-128h-512z" />
<glyph unicode="G" d="M0 256v768h128v128h128v128h512v-128h128v-256h-128v128h-128v128h-256v-128h-128v-768h128v-128h256v-128h-384v128h-128v128h-128zM384 512v128h512v-640h-128v128h-128v384h-256z" />
<glyph unicode="H" d="M0 0v1280h256v-512h384v512h256v-1280h-256v640h-384v-640h-256z" />
<glyph unicode="I" d="M256 0v128h128v1024h-128v128h512v-128h-128v-1024h128v-128h-512z" />
<glyph unicode="J" d="M0 128v384h256v-384h256v1024h-128v128h512v-128h-128v-1024h-128v-128h-512v128h-128z" />
<glyph unicode="K" d="M0 0v128h128v1024h-128v128h384v-512h128v128h128v384h256v-384h-128v-128h-128v-256h128v-128h128v-384h-256v384h-128v128h-128v-512h-384z" />
<glyph unicode="L" d="M0 0v128h128v1024h-128v128h512v-128h-128v-1024h256v128h128v128h128v-384h-896z" />
<glyph unicode="M" d="M0 0v1280h256v-128h128v-128h128v128h128v128h256v-1280h-256v768h-128v-128h-128v128h-128v-768h-256z" />
<glyph unicode="N" d="M0 0v1280h256v-128h128v-128h128v-128h128v384h256v-1280h-256v512h-128v128h-128v128h-128v-768h-256z" />
<glyph unicode="O" d="M0 128v1024h128v128h640v-128h128v-1024h-128v-128h-640v128h-128zM256 128h384v1024h-384v-1024z" />
<glyph unicode="P" d="M0 0v128h128v1024h-128v128h768v-128h128v-384h-128v-128h-384v-512h128v-128h-512zM384 768h256v384h-256v-384z" />
<glyph unicode="Q" d="M0 128v1024h128v128h640v-128h128v-1024h-128v-256h128v-128h-384v256h-384v128h-128zM256 128h128v256h128v-128h128v896h-384v-1024z" />
<glyph unicode="R" d="M0 0v128h128v1024h-128v128h768v-128h128v-384h-128v-256h128v-512h-256v512h-128v128h-128v-640h-384zM384 768h256v384h-256v-384z" />
<glyph unicode="S" d="M0 128v256h256v-256h384v384h-128v128h-256v128h-128v128h-128v256h128v128h640v-128h128v-256h-256v256h-384v-256h128v-128h256v-128h128v-128h128v-384h-128v-128h-640v128h-128z" />
<glyph unicode="T" d="M128 896v384h768v-384h-128v128h-128v-896h128v-128h-512v128h128v896h-128v-128h-128z" />
<glyph unicode="U" d="M0 128v1152h256v-1152h384v1152h256v-1152h-128v-128h-640v128h-128z" />
<glyph unicode="V" d="M0 384v896h256v-896h128v-128h128v128h128v896h256v-896h-128v-128h-128v-128h-128v-128h-128v128h-128v128h-128v128h-128z" />
<glyph unicode="W" d="M0 128v1152h256v-896h128v384h128v-384h128v896h256v-1152h-128v-128h-256v256h-128v-256h-256v128h-128z" />
<glyph unicode="X" d="M0 0v256h128v256h128v256h-128v256h-128v256h256v-256h128v-128h128v128h128v256h256v-256h-128v-256h-128v-256h128v-256h128v-256h-256v256h-128v128h-128v-128h-128v-256h-256z" />
<glyph unicode="Y" d="M128 768v512h256v-512h256v512h256v-512h-128v-128h-128v-512h128v-128h-512v128h128v512h-128v128h-128z" />
<glyph unicode="Z" d="M0 0v384h128v128h128v128h128v128h128v128h128v256h-384v-128h-128v-128h-128v384h896v-384h-128v-128h-128v-128h-128v-128h-128v-128h-128v-256h384v128h128v128h128v-384h-896z" />
<glyph unicode="[" d="M256 0v1280h512v-128h-256v-1024h256v-128h-512z" />
<glyph unicode="\" d="M0 768v384h128v-128h128v-128h128v-128h128v-128h128v-128h128v-128h128v-384h-128v128h-128v128h-128v128h-128v128h-128v128h-128v128h-128z" />
<glyph unicode="]" d="M256 0v128h256v1024h-256v128h512v-1280h-512z" />
<glyph unicode="^" d="M0 1024v128h128v128h128v128h128v128h128v-128h128v-128h128v-128h128v-128h-256v128h-128v128h-128v-128h-128v-128h-256z" />
<glyph unicode="_" d="M0 -128h1024v-128h-1024v128z" />
<glyph unicode="`" d="M256 1280v256h256v-256h128v-128h-256v128h-128z" />
<glyph unicode="a" d="M0 128v384h128v128h384v128h-384v128h512v-128h128v-640h128v-128h-256v128h-128v384h-256v-384h256v-128h-384v128h-128z" />
<glyph unicode="b" d="M0 1152v128h384v-384h256v-128h128v-128h128v-512h-128v-128h-640v1152h-128zM384 128h256v512h-128v128h-128v-640z" />
<glyph unicode="c" d="M0 128v640h128v128h640v-128h128v-128h-256v128h-384v-640h384v128h256v-128h-128v-128h-640v128h-128z" />
<glyph unicode="d" d="M0 128v512h128v128h128v128h256v256h-128v128h384v-1152h128v-128h-256v128h-128v640h-128v-128h-128v-512h256v-128h-384v128h-128z" />
<glyph unicode="e" d="M0 128v640h128v128h640v-128h128v-256h-640v-384h384v128h256v-128h-128v-128h-640v128h-128zM256 640h384v128h-384v-128z" />
<glyph unicode="f" d="M0 0v128h128v512h-128v128h128v384h128v128h384v-128h128v-256h-128v128h-128v128h-128v-384h128v-128h-128v-512h128v-128h-512z" />
<glyph unicode="g" d="M0 -128h256v-128h256v256h-384v128h-128v640h128v128h384v-128h-256v-640h256v640h128v128h256v-128h-128v-1024h-128v-128h-512v128h-128v128z" />
<glyph unicode="h" d="M0 0v128h128v1024h-128v128h384v-512h128v-128h-128v-640h-384zM512 768v128h256v-128h128v-768h-256v768h-128z" />
<glyph unicode="i" d="M256 0v128h128v640h-128v128h384v-768h128v-128h-512zM384 1024v256h256v-256h-256z" />
<glyph unicode="j" d="M128 0h256v-256h256v1024h-128v128h384v-1152h-128v-128h-512v128h-128v256zM640 1024v256h256v-256h-256z" />
<glyph unicode="k" d="M0 0v128h128v1024h-128v128h384v-640h128v128h128v128h256v-128h-128v-128h-128v-256h128v-128h128v-256h-256v256h-128v128h-128v-384h-384z" />
<glyph unicode="l" d="M256 0v128h128v1024h-128v128h384v-1152h128v-128h-512z" />
<glyph unicode="m" d="M0 0v896h384v-128h128v128h256v-128h128v-768h-256v640h-128v-512h-128v512h-128v-640h-256z" />
<glyph unicode="n" d="M0 768v128h256v-128h128v-768h-256v768h-128zM384 768v128h384v-128h128v-768h-256v768h-256z" />
<glyph unicode="o" d="M0 128v640h128v128h640v-128h128v-640h-128v-128h-640v128h-128zM256 128h384v640h-384v-640z" />
<glyph unicode="p" d="M0 -256h128v1024h-128v128h256v-128h128v-640h256v640h-256v128h384v-128h128v-640h-128v-128h-384v-256h128v-128h-512v128z" />
<glyph unicode="q" d="M0 128v640h128v128h384v-128h-256v-640h256v640h128v128h256v-128h-128v-1024h128v-128h-512v128h128v256h-384v128h-128z" />
<glyph unicode="r" d="M0 0v128h128v640h-128v128h256v-128h128v128h384v-128h128v-256h-256v256h-128v-128h-128v-512h128v-128h-512z" />
<glyph unicode="s" d="M0 128v128h256v-128h384v128h-128v128h-256v128h-128v128h-128v128h128v128h640v-128h128v-128h-256v128h-384v-128h128v-128h256v-128h128v-128h128v-128h-128v-128h-640v128h-128z" />
<glyph unicode="t" d="M0 768v128h256v256h128v128h128v-384h256v-128h-256v-640h128v128h256v-128h-128v-128h-384v128h-128v640h-256z" />
<glyph unicode="u" d="M0 128v768h256v-768h256v-128h-384v128h-128zM512 128v768h256v-768h128v-128h-256v128h-128z" />
<glyph unicode="v" d="M128 256v640h256v-640h256v640h256v-640h-128v-128h-128v-128h-256v128h-128v128h-128z" />
<glyph unicode="w" d="M0 128v768h256v-640h128v384h128v-384h128v640h256v-768h-128v-128h-256v128h-128v-128h-256v128h-128z" />
<glyph unicode="x" d="M0 0v128h128v128h128v384h-128v128h-128v128h256v-128h128v-128h128v128h128v128h256v-128h-128v-128h-128v-384h128v-128h128v-128h-256v128h-128v128h-128v-128h-128v-128h-256z" />
<glyph unicode="y" d="M0 128v768h256v-768h384v768h256v-1024h-128v-128h-128v-128h-640v128h512v128h128v128h-512v128h-128z" />
<glyph unicode="z" d="M0 0v256h128v128h128v128h128v128h128v128h-256v-128h-256v256h896v-128h-128v-128h-128v-128h-128v-128h-128v-128h-128v-128h384v128h256v-256h-896z" />
<glyph unicode="{" d="M128 640v128h256v384h128v128h384v-128h-256v-384h-128v-128h128v-512h256v-128h-384v128h-128v512h-256z" />
<glyph unicode="|" d="M384 0v640h256v-640h-256zM384 768v512h256v-512h-256z" />
<glyph unicode="}" d="M128 0v128h256v512h128v128h-128v384h-256v128h384v-128h128v-384h256v-128h-256v-512h-128v-128h-384z" />
<glyph unicode="~" d="M0 1024v128h128v128h384v-128h128v128h256v-128h-128v-128h-384v128h-128v-128h-256z" />
<glyph d="M0 128v512h128v128h128v128h128v128h128v-128h128v-128h128v-128h128v-512h-896zM256 256h384v384h-128v128h-128v-128h-128v-384z" />
<glyph unicode="&#xa0;" />
<glyph unicode="&#xa1;" d="M256 128v384h128v384h256v-384h128v-384h-128v-128h-256v128h-128zM384 1024v256h256v-256h-256z" />
<glyph unicode="&#xa2;" d="M128 384v640h128v128h128v256h256v-256h128v-128h128v-128h-256v128h-256v-640h256v128h256v-128h-128v-128h-128v-256h-256v256h-128v128h-128z" />
<glyph unicode="&#xa3;" d="M0 0v256h128v512h-128v128h128v384h128v128h384v-128h128v-256h-128v128h-128v128h-128v-384h128v-128h-128v-640h256v128h256v-128h-128v-128h-768z" />
<glyph unicode="&#xa4;" d="M0 0v128h128v128h-128v512h128v128h-128v128h256v-128h384v128h256v-128h-128v-128h128v-512h-128v-128h128v-128h-256v128h-384v-128h-256zM256 256h384v512h-384v-512z" />
<glyph unicode="&#xa5;" d="M128 384v128h256v128h-256v128h256v128h-128v128h-128v256h256v-256h256v256h256v-256h-128v-128h-128v-128h256v-128h-256v-128h256v-128h-256v-384h-256v384h-256z" />
<glyph unicode="&#xa6;" d="M384 0v640h256v-640h-256zM384 768v512h256v-512h-256z" />
<glyph unicode="&#xa7;" d="M0 0v128h256v-128h384v128h-128v128h-256v128h-128v128h-128v256h128v128h128v128h-128v128h-128v128h128v128h640v-128h128v-128h-256v128h-384v-128h128v-128h256v-128h128v-128h128v-256h-128v-128h-128v-128h128v-128h128v-128h-128v-128h-640v128h-128zM256 512h128 v-128h128v128h128v256h-128v128h-128v-128h-128v-256z" />
<glyph unicode="&#xa8;" d="M0 1280v128h256v-128h-256zM640 1280v128h256v-128h-256z" />
<glyph unicode="&#xa9;" d="M0 256v896h128v-896h-128zM128 128v128h640v-128h-640zM128 1152v128h640v-128h-640zM256 512v384h128v-384h-128zM384 384v128h256v-128h-256zM384 896v128h256v-128h-256zM768 256v896h128v-896h-128z" />
<glyph unicode="&#xaa;" d="M128 640v128h768v-128h-768zM128 1024v256h128v128h512v-384h128v-128h-640v128h-128zM384 1024h128v256h-128v-256z" />
<glyph unicode="&#xab;" d="M0 512v128h128v128h128v128h256v-128h-128v-128h-128v-128h128v-128h128v-128h-256v128h-128v128h-128zM384 512v128h128v128h128v128h256v-128h-128v-128h-128v-128h128v-128h128v-128h-256v128h-128v128h-128z" />
<glyph unicode="&#xac;" d="M0 640v128h896v-640h-256v512h-640z" />
<glyph unicode="&#xad;" d="M0 512v128h896v-128h-896z" />
<glyph unicode="&#xae;" d="M0 256v896h128v-896h-128zM128 128v128h640v-128h-640zM128 1152v128h640v-128h-640zM256 384v640h256v-128h-128v-128h128v-128h-128v-256h-128zM512 384v256h128v-256h-128zM512 768v128h128v-128h-128zM768 256v896h128v-896h-128z" />
<glyph unicode="&#xaf;" d="M0 1280v128h1024v-128h-1024z" />
<glyph unicode="&#xb0;" d="M128 1024v256h128v128h384v-128h128v-256h-128v-128h-384v128h-128zM384 1024h128v256h-128v-256z" />
<glyph unicode="&#xb1;" d="M0 0v128h1024v-128h-1024zM128 640v128h256v256h256v-256h256v-128h-256v-256h-256v256h-256z" />
<glyph unicode="&#xb2;" d="M0 640v256h128v128h128v128h128v128h-128v-128h-256v128h128v128h384v-128h128v-128h-128v-128h-128v-128h-128v-128h256v128h128v-256h-640z" />
<glyph unicode="&#xb3;" d="M0 640v128h384v256h-256v128h256v128h-384v128h512v-128h128v-128h-128v-128h128v-256h-128v-128h-512z" />
<glyph unicode="&#xb4;" d="M256 1024v128h128v128h128v128h256v-128h-128v-128h-128v-128h-256z" />
<glyph unicode="&#xb5;" d="M0 0h128v1024h256v-640h256v640h256v-640h-128v-128h-384v-256h-128v-128h-256v128z" />
<glyph unicode="&#xb6;" d="M0 768v384h128v128h896v-1280h-256v1152h-128v-1152h-256v640h-256v128h-128zM256 768h128v384h-128v-384z" />
<glyph unicode="&#xb7;" d="M384 384v128h256v-128h-256z" />
<glyph unicode="&#xb8;" d="M128 -128h384v128h-128v128h256v-128h128v-128h-128v-128h-512v128z" />
<glyph unicode="&#xb9;" d="M128 640v128h128v384h-128v128h128v128h256v-640h128v-128h-512z" />
<glyph unicode="&#xba;" d="M128 640v128h640v-128h-640zM128 1024v256h128v128h384v-128h128v-256h-128v-128h-384v128h-128zM384 1024h128v256h-128v-256z" />
<glyph unicode="&#xbb;" d="M0 256v128h128v128h128v128h-128v128h-128v128h256v-128h128v-128h128v-128h-128v-128h-128v-128h-256zM384 256v128h128v128h128v128h-128v128h-128v128h256v-128h128v-128h128v-128h-128v-128h-128v-128h-256z" />
<glyph unicode="&#xbc;" d="M0 128v256h128v128h128v128h128v128h128v128h128v128h128v128h128v-256h-128v-128h-128v-128h-128v-128h-128v-128h-128v-128h-128v-128h-128zM0 768v640h256v-640h-256zM256 0v128h128v128h128v128h128v128h256v-768h-256v256h-384z" />
<glyph unicode="&#xbd;" d="M0 128v256h128v128h128v128h128v128h128v128h128v128h128v128h128v-256h-128v-128h-128v-128h-128v-128h-128v-128h-128v-128h-128v-128h-128zM0 768v640h256v-640h-256zM256 -128h128v128h128v128h128v128h-256v128h384v-128h128v-128h-128v-128h-128v-128h256v-128 h-640v128z" />
<glyph unicode="&#xbe;" d="M0 128v256h128v128h128v128h128v128h128v128h128v128h128v128h128v-256h-128v-128h-128v-128h-128v-128h-128v-128h-128v-128h-128v-128h-128zM0 768v128h256v128h-128v128h128v128h-256v128h384v-128h128v-128h-128v-128h128v-128h-128v-128h-384zM256 0v128h128v128 h128v128h128v128h256v-768h-256v256h-384zM512 128h128v128h-128v-128z" />
<glyph unicode="&#xbf;" d="M0 128v384h128v128h128v256h256v-256h-128v-128h-128v-384h384v256h256v-256h-128v-128h-640v128h-128zM256 1024v256h256v-256h-256z" />
<glyph unicode="&#xc0;" d="M0 0v896h128v128h128v128h128v128h128v-128h128v-128h128v-128h128v-896h-256v512h-384v-512h-256zM256 640h384v256h-128v128h-128v-128h-128v-256zM512 1408v128h256v-128h128v-128h-256v128h-128z" />
<glyph unicode="&#xc1;" d="M0 0v896h128v128h128v128h128v128h128v-128h128v-128h128v-128h128v-896h-256v512h-384v-512h-256zM0 1280v128h128v128h256v-128h-128v-128h-256zM256 640h384v256h-128v128h-128v-128h-128v-256z" />
<glyph unicode="&#xc2;" d="M0 0v896h128v128h128v128h128v128h128v-128h128v-128h128v-128h128v-896h-256v512h-384v-512h-256zM0 1280v128h128v128h640v-128h128v-128h-256v128h-384v-128h-256zM256 640h384v256h-128v128h-128v-128h-128v-256z" />
<glyph unicode="&#xc3;" d="M0 0v768h128v128h128v128h128v128h128v-128h128v-128h128v-128h128v-768h-256v384h-384v-384h-256zM0 1280v128h128v128h384v-128h128v128h256v-128h-128v-128h-384v128h-128v-128h-256zM256 512h384v256h-128v128h-128v-128h-128v-256z" />
<glyph unicode="&#xc4;" d="M0 0v768h128v128h128v128h128v128h128v-128h128v-128h128v-128h128v-768h-256v384h-384v-384h-256zM0 1280v128h256v-128h-256zM256 512h384v256h-128v128h-128v-128h-128v-256zM640 1280v128h256v-128h-256z" />
<glyph unicode="&#xc5;" d="M0 0v768h128v128h128v128h384v-128h128v-128h128v-768h-256v384h-384v-384h-256zM128 1280v128h128v128h384v-128h128v-128h-128v-128h-384v128h-128zM256 512h384v256h-128v128h-128v-128h-128v-256zM384 1280h128v128h-128v-128z" />
<glyph unicode="&#xc6;" d="M0 0v1024h128v128h128v128h640v-128h-128v-384h128v-128h-128v-512h128v-128h-384v640h-256v-640h-256zM256 768h256v384h-128v-128h-128v-256z" />
<glyph unicode="&#xc7;" d="M0 384v640h128v128h128v128h512v-128h128v-256h-128v128h-128v128h-256v-128h-128v-640h128v-128h256v128h128v128h128v-256h-128v-256h128v-128h-128v-128h-640v128h512v128h-128v128h-256v128h-128v128h-128z" />
<glyph unicode="&#xc8;" d="M0 0v128h128v896h-128v128h896v-384h-128v128h-128v128h-256v-384h128v128h128v-384h-128v128h-128v-384h256v128h128v128h128v-384h-896zM256 1408v128h256v-128h128v-128h-256v128h-128z" />
<glyph unicode="&#xc9;" d="M0 0v128h128v768h-128v128h896v-256h-256v128h-256v-256h384v-128h-384v-384h256v128h256v-256h-896zM128 1152v128h128v128h128v128h256v-128h-128v-128h-128v-128h-256z" />
<glyph unicode="&#xca;" d="M0 0v128h128v896h-128v128h896v-384h-128v128h-128v128h-256v-384h128v128h128v-384h-128v128h-128v-384h256v128h128v128h128v-384h-896zM128 1280v128h128v128h384v-128h128v-128h-256v128h-128v-128h-256z" />
<glyph unicode="&#xcb;" d="M0 0v128h128v896h-128v128h896v-384h-128v128h-128v128h-256v-384h128v128h128v-384h-128v128h-128v-384h256v128h128v128h128v-384h-896zM0 1280v128h256v-128h-256zM640 1280v128h256v-128h-256z" />
<glyph unicode="&#xcc;" d="M256 0v128h128v896h-128v128h512v-128h-128v-896h128v-128h-512zM256 1408v128h256v-128h128v-128h-256v128h-128z" />
<glyph unicode="&#xcd;" d="M256 0v128h128v896h-128v128h512v-128h-128v-896h128v-128h-512zM384 1280v128h128v128h256v-128h-128v-128h-256z" />
<glyph unicode="&#xce;" d="M128 1280v128h128v128h512v-128h128v-128h-256v128h-256v-128h-256zM256 0v128h128v896h-128v128h512v-128h-128v-896h128v-128h-512z" />
<glyph unicode="&#xcf;" d="M128 1280v128h256v-128h-256zM256 0v128h128v896h-128v128h512v-128h-128v-896h128v-128h-512zM640 1280v128h256v-128h-256z" />
<glyph unicode="&#xd0;" d="M0 0v128h128v512h-128v128h128v384h-128v128h640v-128h128v-128h128v-768h-128v-128h-128v-128h-640zM384 128h128v128h128v768h-128v128h-128v-384h128v-128h-128v-512z" />
<glyph unicode="&#xd1;" d="M0 0v1152h256v-128h128v-128h128v-128h128v384h256v-1152h-256v384h-128v128h-128v128h-128v-640h-256zM0 1280v128h128v128h384v-128h128v128h256v-128h-128v-128h-384v128h-128v-128h-256z" />
<glyph unicode="&#xd2;" d="M0 128v896h128v128h640v-128h128v-896h-128v-128h-640v128h-128zM256 128h384v896h-384v-896zM256 1408v128h256v-128h128v-128h-256v128h-128z" />
<glyph unicode="&#xd3;" d="M0 128v896h128v128h640v-128h128v-896h-128v-128h-640v128h-128zM256 128h384v896h-384v-896zM256 1280v128h128v128h256v-128h-128v-128h-256z" />
<glyph unicode="&#xd4;" d="M0 128v896h128v128h640v-128h128v-896h-128v-128h-640v128h-128zM128 1280v128h128v128h384v-128h128v-128h-256v128h-128v-128h-256zM256 128h384v896h-384v-896z" />
<glyph unicode="&#xd5;" d="M0 128v896h128v128h640v-128h128v-896h-128v-128h-640v128h-128zM0 1280v128h128v128h384v-128h128v128h256v-128h-128v-128h-384v128h-128v-128h-256zM256 128h384v896h-384v-896z" />
<glyph unicode="&#xd6;" d="M0 128v896h128v128h640v-128h128v-896h-128v-128h-640v128h-128zM0 1280v128h256v-128h-256zM256 128h384v896h-384v-896zM640 1280v128h256v-128h-256z" />
<glyph unicode="&#xd7;" d="M0 128v128h128v128h128v256h-128v128h-128v128h256v-128h128v-128h128v128h128v128h256v-128h-128v-128h-128v-256h128v-128h128v-128h-256v128h-128v128h-128v-128h-128v-128h-256z" />
<glyph unicode="&#xd8;" d="M0 128v1024h128v128h512v128h128v-256h128v-1024h-128v-128h-512v-128h-128v256h-128zM256 384h128v-256h256v768h-128v256h-256v-768zM384 384v512h128v-512h-128z" />
<glyph unicode="&#xd9;" d="M0 128v1024h256v-1024h384v1024h256v-1024h-128v-128h-640v128h-128zM256 1408v128h256v-128h128v-128h-256v128h-128z" />
<glyph unicode="&#xda;" d="M0 128v1024h256v-1024h384v1024h256v-1024h-128v-128h-640v128h-128zM256 1280v128h128v128h256v-128h-128v-128h-256z" />
<glyph unicode="&#xdb;" d="M0 128v1024h256v-1024h384v1024h256v-1024h-128v-128h-640v128h-128zM128 1280v128h128v128h384v-128h128v-128h-256v128h-128v-128h-256z" />
<glyph unicode="&#xdc;" d="M0 128v1024h256v-1024h384v1024h256v-1024h-128v-128h-640v128h-128zM0 1280v128h256v-128h-256zM640 1280v128h256v-128h-256z" />
<glyph unicode="&#xdd;" d="M128 640v512h256v-512h256v512h256v-512h-128v-128h-128v-384h128v-128h-512v128h128v384h-128v128h-128zM384 1280v128h128v128h256v-128h-128v-128h-256z" />
<glyph unicode="&#xde;" d="M0 0v128h128v1024h-128v128h512v-128h-128v-128h384v-128h128v-512h-128v-128h-384v-128h128v-128h-512zM384 384h256v512h-256v-512z" />
<glyph unicode="&#xdf;" d="M0 0v1152h128v128h512v-128h128v-384h-128v-128h128v-128h128v-384h-128v-128h-256v128h128v384h-128v128h-128v128h128v384h-256v-1152h-256z" />
<glyph unicode="&#xe0;" d="M0 128v384h128v128h384v128h-384v128h512v-128h128v-640h128v-128h-256v128h-128v384h-256v-384h256v-128h-384v128h-128zM128 1280v128h256v-128h128v-128h128v-128h-256v128h-128v128h-128z" />
<glyph unicode="&#xe1;" d="M0 128v384h128v128h384v128h-384v128h512v-128h128v-640h128v-128h-256v128h-128v384h-256v-384h256v-128h-384v128h-128zM128 1024v128h128v128h128v128h256v-128h-128v-128h-128v-128h-256z" />
<glyph unicode="&#xe2;" d="M0 128v384h128v128h384v128h-384v128h512v-128h128v-640h128v-128h-256v128h-128v384h-256v-384h256v-128h-384v128h-128zM128 1024v128h128v128h128v128h128v-128h128v-128h128v-128h-256v128h-128v-128h-256z" />
<glyph unicode="&#xe3;" d="M0 128v384h128v128h384v128h-384v128h512v-128h128v-640h128v-128h-256v128h-128v384h-256v-384h256v-128h-384v128h-128zM0 1024v128h128v128h384v-128h128v128h256v-128h-128v-128h-384v128h-128v-128h-256z" />
<glyph unicode="&#xe4;" d="M0 128v384h128v128h384v128h-384v128h512v-128h128v-640h128v-128h-256v128h-128v384h-256v-384h256v-128h-384v128h-128zM0 1152v128h256v-128h-256zM512 1152v128h256v-128h-256z" />
<glyph unicode="&#xe5;" d="M0 128v384h128v128h384v128h-384v128h512v-128h128v-640h128v-128h-256v128h-128v384h-256v-384h256v-128h-384v128h-128zM128 1152v128h128v128h384v-128h128v-128h-128v-128h-384v128h-128zM384 1152h128v128h-128v-128z" />
<glyph unicode="&#xe6;" d="M0 128v256h128v128h128v128h-128v128h-128v128h256v-128h256v-256h128v256h-128v128h256v-128h128v-384h-256v-256h256v-128h-384v128h-128v256h-128v-256h128v-128h-256v128h-128z" />
<glyph unicode="&#xe7;" d="M128 384v512h128v128h512v-128h128v-128h-256v128h-256v-512h256v128h256v-128h-128v-256h128v-128h-128v-128h-512v128h384v128h-128v128h-256v128h-128z" />
<glyph unicode="&#xe8;" d="M0 128v640h128v128h640v-128h128v-256h-640v-384h384v128h256v-128h-128v-128h-640v128h-128zM128 1280v128h256v-128h128v-128h128v-128h-256v128h-128v128h-128zM256 640h384v128h-384v-128z" />
<glyph unicode="&#xe9;" d="M0 128v640h128v128h640v-128h128v-256h-640v-384h384v128h256v-128h-128v-128h-640v128h-128zM256 640h384v128h-384v-128zM256 1024v128h128v128h128v128h256v-128h-128v-128h-128v-128h-256z" />
<glyph unicode="&#xea;" d="M0 128v640h128v128h640v-128h128v-256h-640v-384h384v128h256v-128h-128v-128h-640v128h-128zM128 1024v128h128v128h128v128h128v-128h128v-128h128v-128h-256v128h-128v-128h-256zM256 640h384v128h-384v-128z" />
<glyph unicode="&#xeb;" d="M0 128v640h128v128h640v-128h128v-256h-640v-384h384v128h256v-128h-128v-128h-640v128h-128zM0 1152v128h256v-128h-256zM256 640h384v128h-384v-128zM640 1152v128h256v-128h-256z" />
<glyph unicode="&#xec;" d="M128 1280v128h256v-128h128v-128h128v-128h-256v128h-128v128h-128zM256 0v128h128v640h-128v128h384v-768h128v-128h-512z" />
<glyph unicode="&#xed;" d="M256 0v128h128v640h-128v128h384v-768h128v-128h-512zM256 1024v128h128v128h128v128h256v-128h-128v-128h-128v-128h-256z" />
<glyph unicode="&#xee;" d="M128 1024v128h128v128h128v128h256v-128h128v-128h128v-128h-256v128h-256v-128h-256zM256 0v128h128v640h-128v128h384v-768h128v-128h-512z" />
<glyph unicode="&#xef;" d="M128 1152v128h256v-128h-256zM256 0v128h128v640h-128v128h384v-768h128v-128h-512zM640 1152v128h256v-128h-256z" />
<glyph unicode="&#xf0;" d="M128 128v512h128v128h384v128h-128v128h-128v128h-128v128h256v-128h128v-128h128v-128h128v-768h-128v-128h-512v128h-128zM256 896v128h128v-128h-128zM384 128h256v512h-256v-512zM640 1152v128h128v-128h-128z" />
<glyph unicode="&#xf1;" d="M0 768v128h256v-128h128v-768h-256v768h-128zM0 1024v128h128v128h384v-128h128v128h256v-128h-128v-128h-384v128h-128v-128h-256zM384 768v128h384v-128h128v-768h-256v768h-256z" />
<glyph unicode="&#xf2;" d="M0 128v640h128v128h640v-128h128v-640h-128v-128h-640v128h-128zM128 1280v128h256v-128h128v-128h128v-128h-256v128h-128v128h-128zM256 128h384v640h-384v-640z" />
<glyph unicode="&#xf3;" d="M0 128v640h128v128h640v-128h128v-640h-128v-128h-640v128h-128zM128 1024v128h128v128h128v128h256v-128h-128v-128h-128v-128h-256zM256 128h384v640h-384v-640z" />
<glyph unicode="&#xf4;" d="M0 128v640h128v128h640v-128h128v-640h-128v-128h-640v128h-128zM128 1024v128h128v128h128v128h128v-128h128v-128h128v-128h-256v128h-128v-128h-256zM256 128h384v640h-384v-640z" />
<glyph unicode="&#xf5;" d="M0 128v640h128v128h640v-128h128v-640h-128v-128h-640v128h-128zM0 1024v128h128v128h384v-128h128v128h256v-128h-128v-128h-384v128h-128v-128h-256zM256 128h384v640h-384v-640z" />
<glyph unicode="&#xf6;" d="M0 128v640h128v128h640v-128h128v-640h-128v-128h-640v128h-128zM0 1152v128h256v-128h-256zM256 128h384v640h-384v-640zM640 1152v128h256v-128h-256z" />
<glyph unicode="&#xf7;" d="M128 512v128h768v-128h-768zM384 128v256h256v-256h-256zM384 768v256h256v-256h-256z" />
<glyph unicode="&#xf8;" d="M0 128v640h128v128h640v-128h128v-640h-128v-128h-640v128h-128zM256 128h384v384h-128v-128h-128v-128h-128v-128zM256 512h128v128h128v128h-256v-256z" />
<glyph unicode="&#xf9;" d="M0 128v768h256v-768h256v-128h-384v128h-128zM128 1280v128h256v-128h128v-128h128v-128h-256v128h-128v128h-128zM512 128v768h256v-768h128v-128h-256v128h-128z" />
<glyph unicode="&#xfa;" d="M0 128v768h256v-768h256v-128h-384v128h-128zM128 1024v128h128v128h128v128h256v-128h-128v-128h-128v-128h-256zM512 128v768h256v-768h128v-128h-256v128h-128z" />
<glyph unicode="&#xfb;" d="M0 128v768h256v-768h256v-128h-384v128h-128zM0 1024v128h128v128h128v128h256v-128h128v-128h128v-128h-256v128h-256v-128h-256zM512 128v768h256v-768h128v-128h-256v128h-128z" />
<glyph unicode="&#xfc;" d="M0 128v768h256v-768h256v-128h-384v128h-128zM0 1152v128h256v-128h-256zM512 128v768h256v-768h128v-128h-256v128h-128zM512 1152v128h256v-128h-256z" />
<glyph unicode="&#xfd;" d="M0 128v768h256v-768h384v768h256v-1024h-128v-128h-128v-128h-640v128h512v128h128v128h-512v128h-128zM256 1024v128h128v128h128v128h256v-128h-128v-128h-128v-128h-256z" />
<glyph unicode="&#xfe;" d="M0 -256h128v1408h-128v128h384v-384h384v-128h128v-640h-128v-128h-384v-256h128v-128h-512v128zM384 128h256v640h-256v-640z" />
<glyph unicode="&#xff;" d="M0 128v768h256v-768h384v768h256v-1024h-128v-128h-128v-128h-512v128h384v128h128v128h-512v128h-128zM0 1152v128h256v-128h-256zM640 1152v128h256v-128h-256z" />
<glyph unicode="&#x100;" d="M0 0v896h128v128h128v128h128v128h128v-128h128v-128h128v-128h128v-896h-256v512h-384v-512h-256zM128 1408v128h640v-128h-640zM256 640h384v256h-128v128h-128v-128h-128v-256z" />
<glyph unicode="&#x101;" d="M0 128v384h128v128h384v128h-384v128h512v-128h128v-640h128v-128h-256v128h-128v384h-256v-384h256v-128h-384v128h-128zM128 1152v128h640v-128h-640z" />
<glyph unicode="&#x102;" d="M0 0v768h128v128h128v128h128v128h128v-128h128v-128h128v-128h128v-768h-256v384h-384v-384h-256zM0 1408v128h256v-128h384v128h256v-128h-128v-128h-640v128h-128zM256 512h384v256h-128v128h-128v-128h-128v-256z" />
<glyph unicode="&#x103;" d="M0 128v384h128v128h384v128h-384v128h512v-128h128v-640h128v-128h-256v128h-128v384h-256v-384h256v-128h-384v128h-128zM0 1152v128h256v-128h384v128h256v-128h-128v-128h-640v128h-128z" />
<glyph unicode="&#x104;" d="M0 0v896h128v128h128v128h128v128h128v-128h128v-128h128v-128h128v-896h-256v512h-384v-512h-256zM256 -128h128v128h256v-128h-128v-128h384v-128h-512v128h-128v128zM256 640h384v256h-128v128h-128v-128h-128v-256z" />
<glyph unicode="&#x105;" d="M0 128v384h128v128h384v128h-384v128h512v-128h128v-640h128v-128h-256v128h-128v384h-256v-384h256v-128h128v-128h-128v-128h384v-128h-512v128h-128v128h128v128h-256v128h-128z" />
<glyph unicode="&#x106;" d="M0 256v640h128v128h128v128h512v-128h128v-256h-128v128h-128v128h-256v-128h-128v-640h128v-128h256v128h128v128h128v-256h-128v-128h-512v128h-128v128h-128zM384 1280v128h128v128h256v-128h-128v-128h-256z" />
<glyph unicode="&#x107;" d="M0 128v640h128v128h640v-128h128v-128h-256v128h-384v-640h384v128h256v-128h-128v-128h-640v128h-128zM256 1024v128h128v128h128v128h256v-128h-128v-128h-128v-128h-256z" />
<glyph unicode="&#x108;" d="M0 256v640h128v128h128v128h512v-128h128v-256h-128v128h-128v128h-256v-128h-128v-640h128v-128h256v128h128v128h128v-256h-128v-128h-512v128h-128v128h-128zM256 1280v128h128v128h384v-128h128v-128h-256v128h-128v-128h-256z" />
<glyph unicode="&#x109;" d="M0 128v640h128v128h640v-128h128v-128h-256v128h-384v-640h384v128h256v-128h-128v-128h-640v128h-128zM128 1024v128h128v128h128v128h128v-128h128v-128h128v-128h-256v128h-128v-128h-256z" />
<glyph unicode="&#x10a;" d="M0 256v640h128v128h128v128h512v-128h128v-256h-128v128h-128v128h-256v-128h-128v-640h128v-128h256v128h128v128h128v-256h-128v-128h-512v128h-128v128h-128zM384 1280v256h256v-256h-256z" />
<glyph unicode="&#x10b;" d="M0 128v640h128v128h640v-128h128v-128h-256v128h-384v-640h384v128h256v-128h-128v-128h-640v128h-128zM384 1024v256h256v-256h-256z" />
<glyph unicode="&#x10c;" d="M0 256v640h128v128h128v128h512v-128h128v-256h-128v128h-128v128h-256v-128h-128v-640h128v-128h256v128h128v128h128v-256h-128v-128h-512v128h-128v128h-128zM128 1408v128h256v-128h256v128h256v-128h-128v-128h-512v128h-128z" />
<glyph unicode="&#x10d;" d="M0 128v640h128v128h640v-128h128v-128h-256v128h-384v-640h384v128h256v-128h-128v-128h-640v128h-128zM128 1152v128h256v-128h128v128h256v-128h-128v-128h-384v128h-128z" />
<glyph unicode="&#x10e;" d="M0 0v128h128v896h-128v128h640v-128h128v-128h128v-640h-128v-128h-128v-128h-640zM128 1408v128h256v-128h128v128h256v-128h-128v-128h-384v128h-128zM384 128h128v128h128v640h-128v128h-128v-896z" />
<glyph unicode="&#x10f;" d="M0 128v384h128v128h128v128h256v256h-128v128h384v-1024h128v-128h-256v128h-128v512h-128v-128h-128v-384h256v-128h-384v128h-128zM128 1408v128h256v-128h128v128h256v-128h-128v-128h-384v128h-128z" />
<glyph unicode="&#x110;" d="M0 0v128h128v512h-128v128h128v384h-128v128h640v-128h128v-128h128v-768h-128v-128h-128v-128h-640zM384 128h128v128h128v768h-128v128h-128v-384h128v-128h-128v-512z" />
<glyph unicode="&#x111;" d="M0 128v384h128v128h128v128h256v128h-384v128h384v256h256v-256h128v-128h-128v-768h128v-128h-256v128h-128v512h-128v-128h-128v-384h256v-128h-384v128h-128z" />
<glyph unicode="&#x112;" d="M0 0v128h128v1024h-128v128h896v-384h-128v128h-128v128h-256v-384h128v128h128v-384h-128v128h-128v-512h256v128h128v128h128v-384h-896zM128 1408v128h640v-128h-640z" />
<glyph unicode="&#x113;" d="M0 128v640h128v128h640v-128h128v-256h-640v-384h384v128h256v-128h-128v-128h-640v128h-128zM128 1152v128h640v-128h-640zM256 640h384v128h-384v-128z" />
<glyph unicode="&#x114;" d="M0 0v128h128v896h-128v128h896v-384h-128v128h-128v128h-256v-384h128v128h128v-384h-128v128h-128v-384h256v128h128v128h128v-384h-896zM0 1408v128h256v-128h384v128h256v-128h-128v-128h-640v128h-128z" />
<glyph unicode="&#x115;" d="M0 128v640h128v128h640v-128h128v-256h-640v-384h384v128h256v-128h-128v-128h-640v128h-128zM0 1152v128h256v-128h384v128h256v-128h-128v-128h-640v128h-128zM256 640h384v128h-384v-128z" />
<glyph unicode="&#x116;" d="M0 0v128h128v896h-128v128h896v-384h-128v128h-128v128h-256v-384h128v128h128v-384h-128v128h-128v-384h256v128h128v128h128v-384h-896zM384 1280v256h256v-256h-256z" />
<glyph unicode="&#x117;" d="M0 128v640h128v128h640v-128h128v-256h-640v-384h384v128h256v-128h-128v-128h-640v128h-128zM256 640h384v128h-384v-128zM384 1024v256h256v-256h-256z" />
<glyph unicode="&#x118;" d="M0 0v128h128v1024h-128v128h896v-384h-128v128h-128v128h-256v-384h128v128h128v-384h-128v128h-128v-512h256v128h128v128h128v-384h-256v-128h-128v-128h384v-128h-512v128h-128v128h128v128h-384z" />
<glyph unicode="&#x119;" d="M0 128v640h128v128h640v-128h128v-256h-640v-384h384v128h256v-128h-128v-128h-256v-128h-128v-128h384v-128h-512v128h-128v128h128v128h-128v128h-128zM256 640h384v128h-384v-128z" />
<glyph unicode="&#x11a;" d="M0 0v128h128v896h-128v128h896v-384h-128v128h-128v128h-256v-384h128v128h128v-384h-128v128h-128v-384h256v128h128v128h128v-384h-896zM128 1408v128h256v-128h128v128h256v-128h-128v-128h-384v128h-128z" />
<glyph unicode="&#x11b;" d="M0 128v640h128v128h640v-128h128v-256h-640v-384h384v128h256v-128h-128v-128h-640v128h-128zM128 1152v128h256v-128h256v128h256v-128h-128v-128h-512v128h-128zM256 640h384v128h-384v-128z" />
<glyph unicode="&#x11c;" d="M0 256v640h128v128h128v128h512v-128h128v-256h-128v128h-128v128h-256v-128h-128v-640h128v-128h256v-128h-384v128h-128v128h-128zM256 1280v128h128v128h384v-128h128v-128h-256v128h-128v-128h-256zM384 384v128h512v-512h-128v128h-128v256h-256z" />
<glyph unicode="&#x11d;" d="M0 -128h256v-128h256v256h-384v128h-128v640h128v128h384v-128h-256v-640h256v640h128v128h256v-128h-128v-1024h-128v-128h-512v128h-128v128zM128 1024v128h128v128h128v128h128v-128h128v-128h128v-128h-256v128h-128v-128h-256z" />
<glyph unicode="&#x11e;" d="M0 256v640h128v128h128v128h512v-128h128v-256h-128v128h-128v128h-256v-128h-128v-640h128v-128h256v-128h-384v128h-128v128h-128zM128 1408v128h256v-128h256v128h256v-128h-128v-128h-512v128h-128zM384 384v128h512v-512h-128v128h-128v256h-256z" />
<glyph unicode="&#x11f;" d="M0 -128h256v-128h256v256h-384v128h-128v640h128v128h384v-128h-256v-640h256v640h128v128h256v-128h-128v-1024h-128v-128h-512v128h-128v128zM0 1152v128h256v-128h384v128h256v-128h-128v-128h-640v128h-128z" />
<glyph unicode="&#x120;" d="M0 256v640h128v128h128v128h512v-128h128v-256h-128v128h-128v128h-256v-128h-128v-640h128v-128h256v-128h-384v128h-128v128h-128zM384 384v128h512v-512h-128v128h-128v256h-256zM384 1280v256h256v-256h-256z" />
<glyph unicode="&#x121;" d="M0 -128h256v-128h256v256h-384v128h-128v640h128v128h384v-128h-256v-640h256v640h128v128h256v-128h-128v-1024h-128v-128h-512v128h-128v128zM384 1024v256h256v-256h-256z" />
<glyph unicode="&#x122;" d="M0 256v768h128v128h128v128h512v-128h128v-256h-128v128h-128v128h-256v-128h-128v-768h128v-128h256v-256h128v-128h-128v-128h-512v128h384v128h-128v128h-128v128h-128v128h-128zM384 512v128h512v-640h-128v128h-128v384h-256z" />
<glyph unicode="&#x123;" d="M0 -128h256v-128h256v256h-384v128h-128v640h128v128h384v-128h-256v-640h256v640h128v128h256v-128h-128v-1024h-128v-128h-512v128h-128v128zM256 1152v128h128v128h512v-128h-384v-128h128v-128h-256v128h-128z" />
<glyph unicode="&#x124;" d="M0 0v1152h256v-512h384v512h256v-1152h-256v512h-384v-512h-256zM128 1280v128h128v128h384v-128h128v-128h-256v128h-128v-128h-256z" />
<glyph unicode="&#x125;" d="M0 0v128h128v896h-128v128h384v-512h128v-128h-128v-512h-384zM128 1280v128h128v128h384v-128h128v-128h-256v128h-128v-128h-256zM512 640v128h256v-128h128v-640h-256v640h-128z" />
<glyph unicode="&#x126;" d="M0 896v128h128v256h256v-256h256v256h256v-256h128v-128h-128v-896h-256v640h-256v-640h-256v896h-128zM384 768h256v128h-256v-128z" />
<glyph unicode="&#x127;" d="M0 0v128h128v768h-128v128h128v128h-128v128h384v-256h256v-128h-256v-256h128v-128h-128v-512h-384zM512 640v128h256v-128h128v-640h-256v640h-128z" />
<glyph unicode="&#x128;" d="M0 1280v128h128v128h384v-128h128v128h256v-128h-128v-128h-384v128h-128v-128h-256zM256 0v128h128v896h-128v128h512v-128h-128v-896h128v-128h-512z" />
<glyph unicode="&#x129;" d="M0 1024v128h128v128h384v-128h128v128h256v-128h-128v-128h-384v128h-128v-128h-256zM256 0v128h128v640h-128v128h384v-768h128v-128h-512z" />
<glyph unicode="&#x12a;" d="M128 1408v128h768v-128h-768zM256 0v128h128v1024h-128v128h512v-128h-128v-1024h128v-128h-512z" />
<glyph unicode="&#x12b;" d="M128 1152v128h640v-128h-640zM256 0v128h128v640h-128v128h384v-768h128v-128h-512z" />
<glyph unicode="&#x12c;" d="M128 1408v128h256v-128h256v128h256v-128h-128v-128h-512v128h-128zM256 0v128h128v896h-128v128h512v-128h-128v-896h128v-128h-512z" />
<glyph unicode="&#x12d;" d="M128 1152v128h256v-128h256v128h256v-128h-128v-128h-512v128h-128zM256 0v128h128v640h-128v128h384v-768h128v-128h-512z" />
<glyph unicode="&#x12e;" d="M256 0v128h128v1024h-128v128h512v-128h-128v-1024h128v-128h-128v-128h-128v-128h384v-128h-512v128h-128v128h128v128h-128z" />
<glyph unicode="&#x12f;" d="M256 0v128h128v640h-128v128h384v-768h128v-128h-128v-128h-128v-128h384v-128h-512v128h-128v128h128v128h-128zM384 1024v256h256v-256h-256z" />
<glyph unicode="&#x130;" d="M256 0v128h128v896h-128v128h512v-128h-128v-896h128v-128h-512zM384 1280v256h256v-256h-256z" />
<glyph unicode="&#x131;" d="M256 0v128h128v640h-128v128h384v-768h128v-128h-512z" />
<glyph unicode="&#x132;" d="M0 0v1280h256v-1280h-256zM384 128v384h128v-384h-128zM512 0v128h128v1024h-128v128h384v-1152h-128v-128h-256z" />
<glyph unicode="&#x133;" d="M0 0v896h256v-896h-256zM0 1024v256h256v-256h-256zM256 0h256v-256h128v1024h-128v128h384v-1152h-128v-128h-384v128h-128v256zM640 1024v256h256v-256h-256z" />
<glyph unicode="&#x134;" d="M0 128v256h256v-256h256v896h-128v128h512v-128h-128v-896h-128v-128h-512v128h-128zM256 1280v128h128v128h384v-128h128v-128h-256v128h-128v-128h-256z" />
<glyph unicode="&#x135;" d="M0 0h256v-256h256v1024h-128v128h384v-1152h-128v-128h-512v128h-128v256zM256 1024v128h128v128h128v128h128v-128h128v-128h128v-128h-256v128h-128v-128h-256z" />
<glyph unicode="&#x136;" d="M0 0v128h128v1024h-128v128h384v-512h128v128h128v384h256v-384h-128v-128h-128v-256h128v-128h128v-384h-256v384h-128v128h-128v-512h-384zM128 -256h384v128h-128v128h256v-128h128v-128h-128v-128h-512v128z" />
<glyph unicode="&#x137;" d="M0 0v128h128v1024h-128v128h384v-640h128v128h128v128h256v-128h-128v-128h-128v-256h128v-128h128v-256h-256v256h-128v128h-128v-384h-384zM128 -256h384v128h-128v128h256v-128h128v-128h-128v-128h-512v128z" />
<glyph unicode="&#x138;" d="M0 0v128h128v640h-128v128h384v-384h128v128h128v256h256v-256h-128v-128h-128v-128h128v-128h128v-256h-256v256h-128v128h-128v-384h-384z" />
<glyph unicode="&#x139;" d="M0 0v128h128v1024h-128v128h512v-128h-128v-1024h256v128h128v128h128v-384h-896zM512 1024v128h128v128h256v-128h-128v-128h-256z" />
<glyph unicode="&#x13a;" d="M0 0v128h128v1024h-128v128h384v-1152h128v-128h-512zM512 1024v128h128v128h256v-128h-128v-128h-256z" />
<glyph unicode="&#x13b;" d="M0 0v128h128v1024h-128v128h512v-128h-128v-1024h256v128h128v128h128v-384h-256v-128h128v-128h-128v-128h-512v128h384v128h-128v128h-384z" />
<glyph unicode="&#x13c;" d="M128 -256h384v128h-128v128h-128v128h128v1024h-128v128h384v-1152h128v-128h-128v-128h128v-128h-128v-128h-512v128z" />
<glyph unicode="&#x13d;" d="M0 0v128h128v1024h-128v128h384v-1152h256v128h128v128h128v-384h-896zM384 1280v128h256v-128h128v128h256v-128h-128v-128h-384v128h-128z" />
<glyph unicode="&#x13e;" d="M0 0v128h128v1024h-128v128h384v-1152h128v-128h-512zM384 1280v128h256v-128h128v128h256v-128h-128v-128h-384v128h-128z" />
<glyph unicode="&#x13f;" d="M0 0v128h128v1024h-128v128h512v-128h-128v-1024h256v128h128v128h128v-384h-896zM640 640v256h256v-256h-256z" />
<glyph unicode="&#x140;" d="M128 0v128h128v1024h-128v128h384v-1152h128v-128h-512zM640 512v256h256v-256h-256z" />
<glyph unicode="&#x141;" d="M0 0v128h128v256h-128v256h128v512h-128v128h512v-128h-128v-256h128v128h128v128h128v-256h-128v-128h-128v-128h-128v-512h256v128h128v128h128v-384h-896z" />
<glyph unicode="&#x142;" d="M128 256v256h128v128h128v512h-128v128h384v-256h128v128h128v-256h-128v-128h-128v-640h128v-128h-512v128h128v256h-128v-128h-128z" />
<glyph unicode="&#x143;" d="M0 0v1152h256v-128h128v-128h128v-128h128v384h256v-1152h-256v384h-128v128h-128v128h-128v-640h-256zM384 1280v128h128v128h256v-128h-128v-128h-256z" />
<glyph unicode="&#x144;" d="M0 768v128h256v-128h128v-768h-256v768h-128zM256 1024v128h128v128h128v128h256v-128h-128v-128h-128v-128h-256zM384 768v128h384v-128h128v-768h-256v768h-256z" />
<glyph unicode="&#x145;" d="M0 0v1280h256v-128h128v-128h128v-128h128v384h256v-1280h-256v512h-128v128h-128v128h-128v-768h-256zM128 -256h384v128h-128v128h256v-128h128v-128h-128v-128h-512v128z" />
<glyph unicode="&#x146;" d="M0 768v128h256v-128h128v-768h-256v768h-128zM128 -256h384v128h-128v128h256v-128h128v-128h-128v-128h-512v128zM384 768v128h384v-128h128v-768h-256v768h-256z" />
<glyph unicode="&#x147;" d="M0 0v1152h256v-128h128v-128h128v-128h128v384h256v-1152h-256v384h-128v128h-128v128h-128v-640h-256zM128 1408v128h256v-128h128v128h256v-128h-128v-128h-384v128h-128z" />
<glyph unicode="&#x148;" d="M0 768v128h256v-128h128v-768h-256v768h-128zM128 1152v128h256v-128h128v128h256v-128h-128v-128h-384v128h-128zM384 768v128h384v-128h128v-768h-256v768h-256z" />
<glyph unicode="&#x149;" d="M0 768v128h256v-128h128v-768h-256v768h-128zM0 1024v128h128v384h256v-384h-128v-128h-256zM384 768v128h384v-128h128v-768h-256v768h-256z" />
<glyph unicode="&#x14a;" d="M0 0v1280h256v-128h128v-128h128v-128h128v384h256v-1536h-128v-128h-384v128h256v768h-128v128h-128v128h-128v-768h-256z" />
<glyph unicode="&#x14b;" d="M0 768v128h256v-128h128v-768h-256v768h-128zM384 -256h256v1024h-256v128h384v-128h128v-1024h-128v-128h-384v128z" />
<glyph unicode="&#x14c;" d="M0 128v1024h128v128h640v-128h128v-1024h-128v-128h-640v128h-128zM128 1408v128h640v-128h-640zM256 128h384v1024h-384v-1024z" />
<glyph unicode="&#x14d;" d="M0 128v640h128v128h640v-128h128v-640h-128v-128h-640v128h-128zM128 1152v128h640v-128h-640zM256 128h384v640h-384v-640z" />
<glyph unicode="&#x14e;" d="M0 128v896h128v128h640v-128h128v-896h-128v-128h-640v128h-128zM0 1408v128h256v-128h384v128h256v-128h-128v-128h-640v128h-128zM256 128h384v896h-384v-896z" />
<glyph unicode="&#x14f;" d="M0 128v640h128v128h640v-128h128v-640h-128v-128h-640v128h-128zM0 1152v128h256v-128h384v128h256v-128h-128v-128h-640v128h-128zM256 128h384v640h-384v-640z" />
<glyph unicode="&#x150;" d="M0 128v896h128v128h640v-128h128v-896h-128v-128h-640v128h-128zM128 1280v128h128v128h256v-128h-128v-128h-256zM256 128h384v896h-384v-896zM512 1280v128h128v128h256v-128h-128v-128h-256z" />
<glyph unicode="&#x151;" d="M0 128v640h128v128h640v-128h128v-640h-128v-128h-640v128h-128zM128 1024v128h128v128h256v-128h-128v-128h-256zM256 128h384v640h-384v-640zM512 1024v128h128v128h256v-128h-128v-128h-256z" />
<glyph unicode="&#x152;" d="M0 128v1024h128v128h768v-128h-128v-384h128v-128h-128v-512h128v-128h-768v128h-128zM256 128h256v1024h-256v-1024z" />
<glyph unicode="&#x153;" d="M0 128v640h128v128h256v-128h-128v-640h128v-128h-256v128h-128zM384 128v640h128v-256h128v256h-128v128h256v-128h128v-384h-256v-256h256v-128h-384v128h-128z" />
<glyph unicode="&#x154;" d="M0 0v128h128v896h-128v128h768v-128h128v-384h-128v-256h128v-384h-256v384h-128v128h-128v-512h-384zM256 1280v128h128v128h256v-128h-128v-128h-256zM384 640h256v384h-256v-384z" />
<glyph unicode="&#x155;" d="M0 0v128h128v640h-128v128h256v-128h128v128h384v-128h128v-256h-256v256h-128v-128h-128v-512h128v-128h-512zM256 1024v128h128v128h128v128h256v-128h-128v-128h-128v-128h-256z" />
<glyph unicode="&#x156;" d="M0 0v128h128v1024h-128v128h768v-128h128v-384h-128v-256h128v-512h-256v512h-128v128h-128v-640h-384zM128 -256h384v128h-128v128h256v-128h128v-128h-128v-128h-512v128zM384 768h256v384h-256v-384z" />
<glyph unicode="&#x157;" d="M0 0v128h128v640h-128v128h256v-128h128v128h384v-128h128v-256h-256v256h-128v-128h-128v-512h128v-128h128v-128h128v-128h-128v-128h-512v128h384v128h-128v128h-384z" />
<glyph unicode="&#x158;" d="M0 0v128h128v896h-128v128h768v-128h128v-384h-128v-256h128v-384h-256v384h-128v128h-128v-512h-384zM128 1408v128h256v-128h128v128h256v-128h-128v-128h-384v128h-128zM384 640h256v384h-256v-384z" />
<glyph unicode="&#x159;" d="M0 0v128h128v640h-128v128h256v-128h128v128h384v-128h128v-256h-256v256h-128v-128h-128v-512h128v-128h-512zM128 1152v128h256v-128h128v128h256v-128h-128v-128h-384v128h-128z" />
<glyph unicode="&#x15a;" d="M0 128v256h256v-256h384v256h-128v128h-256v128h-128v128h-128v256h128v128h640v-128h128v-256h-256v256h-384v-256h128v-128h256v-128h128v-128h128v-256h-128v-128h-640v128h-128zM256 1280v128h128v128h256v-128h-128v-128h-256z" />
<glyph unicode="&#x15b;" d="M0 128v128h256v-128h384v128h-128v128h-256v128h-128v128h-128v128h128v128h640v-128h128v-128h-256v128h-384v-128h128v-128h256v-128h128v-128h128v-128h-128v-128h-640v128h-128zM384 1024v128h128v128h256v-128h-128v-128h-256z" />
<glyph unicode="&#x15c;" d="M0 128v256h256v-256h384v256h-128v128h-256v128h-128v128h-128v256h128v128h640v-128h128v-256h-256v256h-384v-256h128v-128h256v-128h128v-128h128v-256h-128v-128h-640v128h-128zM128 1280v128h128v128h384v-128h128v-128h-256v128h-128v-128h-256z" />
<glyph unicode="&#x15d;" d="M0 128v128h256v-128h384v128h-128v128h-256v128h-128v128h-128v128h128v128h640v-128h128v-128h-256v128h-384v-128h128v-128h256v-128h128v-128h128v-128h-128v-128h-640v128h-128zM128 1024v128h128v128h128v128h128v-128h128v-128h128v-128h-256v128h-128v-128h-256z " />
<glyph unicode="&#x15e;" d="M0 128v256h256v-256h384v384h-128v128h-256v128h-128v128h-128v256h128v128h640v-128h128v-256h-256v256h-384v-256h128v-128h256v-128h128v-128h128v-384h-128v-128h-128v-128h128v-128h-128v-128h-512v128h384v128h-128v128h-256v128h-128z" />
<glyph unicode="&#x15f;" d="M0 128v128h256v-128h384v128h-128v128h-256v128h-128v128h-128v128h128v128h640v-128h128v-128h-256v128h-384v-128h128v-128h256v-128h128v-128h128v-128h-128v-128h-128v-128h128v-128h-128v-128h-512v128h384v128h-128v128h-256v128h-128z" />
<glyph unicode="&#x160;" d="M0 128v128h256v-128h384v256h-128v128h-256v128h-128v128h-128v256h128v128h640v-128h128v-128h-256v128h-384v-256h128v-128h256v-128h128v-128h128v-256h-128v-128h-640v128h-128zM128 1408v128h256v-128h128v128h256v-128h-128v-128h-384v128h-128z" />
<glyph unicode="&#x161;" d="M0 128v128h256v-128h384v128h-128v128h-256v128h-128v128h-128v128h128v128h640v-128h128v-128h-256v128h-384v-128h128v-128h256v-128h128v-128h128v-128h-128v-128h-640v128h-128zM128 1152v128h256v-128h128v128h256v-128h-128v-128h-384v128h-128z" />
<glyph unicode="&#x162;" d="M128 -256h384v128h-128v128h-128v128h128v896h-128v-128h-128v384h768v-384h-128v128h-128v-896h128v-128h-128v-128h128v-128h-128v-128h-512v128z" />
<glyph unicode="&#x163;" d="M0 768v128h256v256h128v128h128v-384h256v-128h-256v-640h128v128h256v-128h-128v-128h-128v-128h128v-128h-128v-128h-512v128h384v128h-128v256h-128v640h-256z" />
<glyph unicode="&#x164;" d="M128 768v384h768v-384h-128v128h-128v-768h128v-128h-512v128h128v768h-128v-128h-128zM128 1408v128h256v-128h256v128h256v-128h-128v-128h-512v128h-128z" />
<glyph unicode="&#x165;" d="M0 640v128h256v256h128v128h128v-384h256v-128h-256v-512h128v128h256v-128h-128v-128h-384v128h-128v512h-256zM128 1408v128h256v-128h128v128h256v-128h-128v-128h-384v128h-128z" />
<glyph unicode="&#x166;" d="M128 512v128h256v384h-128v-128h-128v384h768v-384h-128v128h-128v-384h256v-128h-256v-384h128v-128h-512v128h128v384h-256z" />
<glyph unicode="&#x167;" d="M0 512v128h256v128h-256v128h256v256h128v128h128v-384h256v-128h-256v-128h256v-128h-256v-384h128v128h256v-128h-128v-128h-384v128h-128v384h-256z" />
<glyph unicode="&#x168;" d="M0 128v1024h256v-1024h384v1024h256v-1024h-128v-128h-640v128h-128zM0 1280v128h128v128h384v-128h128v128h256v-128h-128v-128h-384v128h-128v-128h-256z" />
<glyph unicode="&#x169;" d="M0 128v768h256v-768h256v-128h-384v128h-128zM0 1024v128h128v128h384v-128h128v128h256v-128h-128v-128h-384v128h-128v-128h-256zM512 128v768h256v-768h128v-128h-256v128h-128z" />
<glyph unicode="&#x16a;" d="M0 128v1152h256v-1152h384v1152h256v-1152h-128v-128h-640v128h-128zM0 1408v128h896v-128h-896z" />
<glyph unicode="&#x16b;" d="M0 128v768h256v-768h256v-128h-384v128h-128zM0 1152v128h768v-128h-768zM512 128v768h256v-768h128v-128h-256v128h-128z" />
<glyph unicode="&#x16c;" d="M0 128v1024h256v-1024h384v1024h256v-1024h-128v-128h-640v128h-128zM0 1408v128h256v-128h384v128h256v-128h-128v-128h-640v128h-128z" />
<glyph unicode="&#x16d;" d="M0 128v768h256v-768h256v-128h-384v128h-128zM0 1152v128h256v-128h384v128h256v-128h-128v-128h-640v128h-128zM512 128v768h256v-768h128v-128h-256v128h-128z" />
<glyph unicode="&#x16e;" d="M0 128v896h256v-896h384v896h256v-896h-128v-128h-640v128h-128zM128 1280v128h128v128h384v-128h128v-128h-128v-128h-384v128h-128zM384 1280h128v128h-128v-128z" />
<glyph unicode="&#x16f;" d="M0 128v768h256v-768h256v-128h-384v128h-128zM0 1152v128h128v128h512v-128h128v-128h-128v-128h-512v128h-128zM256 1152h256v128h-256v-128zM512 128v768h256v-768h128v-128h-256v128h-128z" />
<glyph unicode="&#x170;" d="M0 128v1024h256v-1024h384v1024h256v-1024h-128v-128h-640v128h-128zM128 1280v128h128v128h256v-128h-128v-128h-256zM512 1280v128h128v128h256v-128h-128v-128h-256z" />
<glyph unicode="&#x171;" d="M0 128v768h256v-768h256v-128h-384v128h-128zM128 1024v128h128v128h256v-128h-128v-128h-256zM512 128v768h256v-768h128v-128h-256v128h-128zM512 1024v128h128v128h256v-128h-128v-128h-256z" />
<glyph unicode="&#x172;" d="M0 128v1152h256v-1152h384v1152h256v-1152h-128v-128h-128v-128h-128v-128h384v-128h-512v128h-128v128h128v128h-256v128h-128z" />
<glyph unicode="&#x173;" d="M0 128v768h256v-768h256v-128h128v-128h-128v-128h384v-128h-512v128h-128v128h128v128h-256v128h-128zM512 128v768h256v-768h128v-128h-256v128h-128z" />
<glyph unicode="&#x174;" d="M0 128v1024h256v-768h128v384h128v-384h128v768h256v-1024h-128v-128h-256v256h-128v-256h-256v128h-128zM128 1280v128h128v128h384v-128h128v-128h-256v128h-128v-128h-256z" />
<glyph unicode="&#x175;" d="M0 128v768h256v-640h128v384h128v-384h128v640h256v-768h-128v-128h-256v128h-128v-128h-256v128h-128zM128 1024v128h128v128h128v128h128v-128h128v-128h128v-128h-256v128h-128v-128h-256z" />
<glyph unicode="&#x176;" d="M128 640v512h256v-512h256v512h256v-512h-128v-128h-128v-384h128v-128h-512v128h128v384h-128v128h-128zM128 1280v128h128v128h512v-128h128v-128h-256v128h-256v-128h-256z" />
<glyph unicode="&#x177;" d="M0 128v768h256v-768h384v768h256v-1024h-128v-128h-128v-128h-640v128h512v128h128v128h-512v128h-128zM128 1024v128h128v128h128v128h128v-128h128v-128h128v-128h-256v128h-128v-128h-256z" />
<glyph unicode="&#x178;" d="M128 640v512h256v-512h256v512h256v-512h-128v-128h-128v-384h128v-128h-512v128h128v384h-128v128h-128zM128 1280v128h256v-128h-256zM640 1280v128h256v-128h-256z" />
<glyph unicode="&#x179;" d="M0 0v384h128v128h128v128h128v128h128v128h128v128h-384v-128h-128v-128h-128v384h896v-256h-128v-128h-128v-128h-128v-128h-128v-128h-128v-256h384v128h128v128h128v-384h-896zM256 1280v128h128v128h256v-128h-128v-128h-256z" />
<glyph unicode="&#x17a;" d="M0 0v256h128v128h128v128h128v128h128v128h-256v-128h-256v256h896v-128h-128v-128h-128v-128h-128v-128h-128v-128h-128v-128h384v128h256v-256h-896zM256 1024v128h128v128h128v128h256v-128h-128v-128h-128v-128h-256z" />
<glyph unicode="&#x17b;" d="M0 0v384h128v128h128v128h128v128h128v128h128v128h-384v-128h-128v-128h-128v384h896v-256h-128v-128h-128v-128h-128v-128h-128v-128h-128v-256h384v128h128v128h128v-384h-896zM384 1280v256h256v-256h-256z" />
<glyph unicode="&#x17c;" d="M0 0v256h128v128h128v128h128v128h128v128h-256v-128h-256v256h896v-128h-128v-128h-128v-128h-128v-128h-128v-128h-128v-128h384v128h256v-256h-896zM384 1024v256h256v-256h-256z" />
<glyph unicode="&#x17d;" d="M0 0v384h128v128h128v128h128v128h128v128h128v128h-384v-128h-128v-128h-128v384h896v-256h-128v-128h-128v-128h-128v-128h-128v-128h-128v-256h384v128h128v128h128v-384h-896zM128 1408v128h256v-128h128v128h256v-128h-128v-128h-384v128h-128z" />
<glyph unicode="&#x17e;" d="M0 0v256h128v128h128v128h128v128h128v128h-256v-128h-256v256h896v-128h-128v-128h-128v-128h-128v-128h-128v-128h-128v-128h384v128h256v-256h-896zM128 1152v128h256v-128h128v128h256v-128h-128v-128h-384v128h-128z" />
<glyph unicode="&#x17f;" d="M128 0v128h128v1024h128v128h384v-128h128v-256h-128v128h-128v128h-128v-1024h128v-128h-512z" />
<glyph unicode="&#x192;" d="M0 0h256v-128h128v768h-256v128h256v512h128v128h384v-128h128v-128h-256v128h-128v-512h256v-128h-256v-768h-128v-128h-384v128h-128v128z" />
<glyph unicode="&#x1a1;" d="M0 128v640h128v128h768v-128h-256v-640h-128v-128h-384v128h-128zM256 128h128v640h-128v-640z" />
<glyph unicode="&#x1b7;" d="M0 128v128h256v-128h384v512h-384v128h128v128h128v128h128v128h-384v-128h-256v256h896v-256h-128v-128h-128v-128h128v-128h128v-512h-128v-128h-640v128h-128z" />
<glyph unicode="&#x1fa;" d="M0 0v768h128v128h128v128h384v-128h128v-128h128v-768h-256v384h-384v-384h-256zM128 1280v128h128v128h384v-128h128v-128h-128v-128h-384v128h-128zM256 512h384v256h-128v128h-128v-128h-128v-256zM384 1280h128v128h-128v-128zM768 1408v128h128v-128h-128z" />
<glyph unicode="&#x1fb;" d="M0 128v384h128v128h384v128h-384v128h512v-128h128v-640h128v-128h-256v128h-128v384h-256v-384h256v-128h-384v128h-128zM128 1152v128h128v128h256v128h256v-128h-128v-128h128v-128h-128v-128h-384v128h-128zM384 1152h128v128h-128v-128z" />
<glyph unicode="&#x1fc;" d="M0 0v896h128v128h128v128h640v-128h-128v-384h128v-128h-128v-384h128v-128h-384v512h-256v-512h-256zM256 640h256v384h-128v-128h-128v-256zM384 1280v128h128v128h256v-128h-128v-128h-256z" />
<glyph unicode="&#x1fd;" d="M0 128v256h128v128h128v128h-128v128h-128v128h256v-128h256v-256h128v256h-128v128h256v-128h128v-384h-256v-256h256v-128h-384v128h-128v256h-128v-256h128v-128h-256v128h-128zM256 1024v128h128v128h128v128h256v-128h-128v-128h-128v-128h-256z" />
<glyph unicode="&#x1fe;" d="M0 128v896h128v128h512v128h128v-256h128v-896h-128v-128h-512v-128h-128v256h-128zM256 384h128v-256h256v640h-128v256h-256v-640zM256 1280v128h128v128h256v-128h-128v-128h-256zM384 384v384h128v-384h-128z" />
<glyph unicode="&#x1ff;" d="M0 128v640h128v128h640v-128h128v-640h-128v-128h-640v128h-128zM128 1024v128h128v128h128v128h256v-128h-128v-128h-128v-128h-256zM256 128h384v384h-128v-128h-128v-128h-128v-128zM256 512h128v128h128v128h-256v-256z" />
<glyph unicode="&#x218;" d="M0 128v256h256v-256h384v384h-128v128h-256v128h-128v128h-128v256h128v128h640v-128h128v-256h-256v256h-384v-256h128v-128h256v-128h128v-128h128v-384h-128v-128h-640v128h-128zM256 -256h128v128h256v-128h-128v-128h-256v128z" />
<glyph unicode="&#x219;" d="M0 128v128h256v-128h384v128h-128v128h-256v128h-128v128h-128v128h128v128h640v-128h128v-128h-256v128h-384v-128h128v-128h256v-128h128v-128h128v-128h-128v-128h-640v128h-128zM256 -256h128v128h256v-128h-128v-128h-256v128z" />
<glyph unicode="&#x21a;" d="M128 896v384h768v-384h-128v128h-128v-896h128v-128h-512v128h128v896h-128v-128h-128zM256 -256h128v128h256v-128h-128v-128h-256v128z" />
<glyph unicode="&#x21b;" d="M0 768v128h256v256h128v128h128v-384h256v-128h-256v-640h128v128h256v-128h-128v-128h-384v128h-128v640h-256zM256 -256h128v128h256v-128h-128v-128h-256v128z" />
<glyph unicode="&#x251;" d="M0 128v640h128v128h384v-128h128v128h256v-128h-128v-128h-128v-384h128v-128h128v-128h-256v128h-128v-128h-384v128h-128zM256 128h128v640h-128v-640z" />
<glyph unicode="&#x278;" d="M128 0v128h256v128h-128v128h-128v384h128v128h128v128h-256v128h768v-128h-256v-128h128v-128h128v-384h-128v-128h-128v-128h256v-128h-768zM384 384h256v384h-256v-384z" />
<glyph unicode="&#x2c6;" d="M128 1024v128h128v128h128v128h128v-128h128v-128h128v-128h-256v128h-128v-128h-256z" />
<glyph unicode="&#x2c7;" d="M128 1280v128h256v-128h128v128h256v-128h-128v-128h-384v128h-128z" />
<glyph unicode="&#x2c9;" d="M128 1280v128h640v-128h-640z" />
<glyph unicode="&#x2d8;" d="M0 1280v128h256v-128h384v128h256v-128h-128v-128h-640v128h-128z" />
<glyph unicode="&#x2d9;" d="M384 1152v256h256v-256h-256z" />
<glyph unicode="&#x2da;" d="M128 1024v256h128v128h384v-128h128v-256h-128v-128h-384v128h-128zM384 1024h128v256h-128v-256z" />
<glyph unicode="&#x2db;" d="M128 -128h128v128h256v-128h-128v-128h384v-128h-512v128h-128v128z" />
<glyph unicode="&#x2dc;" d="M0 1152v128h128v128h384v-128h128v128h256v-128h-128v-128h-384v128h-128v-128h-256z" />
<glyph unicode="&#x2dd;" d="M0 1024v128h128v128h128v128h256v-128h-128v-128h-128v-128h-256zM384 1024v128h128v128h128v128h256v-128h-128v-128h-128v-128h-256z" />
<glyph unicode="&#x37e;" d="M256 0v128h128v256h256v-256h-128v-128h-256zM384 768v256h256v-256h-256z" />
<glyph unicode="&#x384;" d="M384 1152v256h128v128h256v-128h-128v-128h-128v-128h-128z" />
<glyph unicode="&#x385;" d="M0 1024v128h256v-128h-256zM256 1280v128h128v128h256v-128h-128v-128h-256zM512 1024v128h256v-128h-256z" />
<glyph unicode="&#x386;" d="M0 0v896h128v128h128v128h128v128h128v-128h128v-128h128v-128h128v-896h-256v512h-384v-512h-256zM0 1280v128h128v128h256v-128h-128v-128h-256zM256 640h384v256h-128v128h-128v-128h-128v-256z" />
<glyph unicode="&#x387;" d="M384 640v256h256v-256h-256z" />
<glyph unicode="&#x388;" d="M0 0v128h128v896h-128v128h896v-384h-128v128h-128v128h-256v-384h128v128h128v-384h-128v128h-128v-384h256v128h128v128h128v-384h-896zM0 1280v128h128v128h256v-128h-128v-128h-256z" />
<glyph unicode="&#x389;" d="M0 0v1152h256v-512h384v512h256v-1152h-256v512h-384v-512h-256zM0 1280v128h128v128h256v-128h-128v-128h-256z" />
<glyph unicode="&#x38a;" d="M0 1280v128h128v128h256v-128h-128v-128h-256zM256 0v128h128v896h-128v128h512v-128h-128v-896h128v-128h-512z" />
<glyph unicode="&#x38c;" d="M0 128v896h128v128h640v-128h128v-896h-128v-128h-640v128h-128zM0 1280v128h128v128h256v-128h-128v-128h-256zM256 128h384v896h-384v-896z" />
<glyph unicode="&#x38e;" d="M0 1280v128h128v128h256v-128h-128v-128h-256zM128 640v512h256v-512h256v512h256v-512h-128v-128h-128v-384h128v-128h-512v128h128v384h-128v128h-128z" />
<glyph unicode="&#x38f;" d="M0 0v128h128v256h-128v512h128v128h128v128h384v-128h128v-128h128v-512h-128v-256h128v-128h-384v384h128v512h-128v128h-128v-128h-128v-512h128v-384h-384zM0 1280v128h128v128h256v-128h-128v-128h-256z" />
<glyph unicode="&#x390;" d="M0 1024v128h256v-128h-256zM256 128v768h256v-768h128v-128h-256v128h-128zM256 1280v128h128v128h256v-128h-128v-128h-256zM512 1024v128h256v-128h-256zM640 128v128h128v-128h-128z" />
<glyph unicode="&#x391;" d="M0 0v896h128v128h128v128h128v128h128v-128h128v-128h128v-128h128v-896h-256v512h-384v-512h-256zM256 640h384v256h-128v128h-128v-128h-128v-256z" />
<glyph unicode="&#x392;" d="M0 0v128h128v1024h-128v128h768v-128h128v-384h-128v-128h128v-512h-128v-128h-768zM384 128h256v512h-256v-512zM384 768h256v384h-256v-384z" />
<glyph unicode="&#x393;" d="M0 0v128h128v1024h-128v128h896v-384h-128v128h-128v128h-256v-1024h128v-128h-512z" />
<glyph unicode="&#x394;" d="M0 0v512h128v256h128v256h128v256h128v-256h128v-256h128v-256h128v-512h-896zM256 128h384v384h-128v256h-128v-256h-128v-384z" />
<glyph unicode="&#x395;" d="M0 0v128h128v1024h-128v128h896v-384h-128v128h-128v128h-256v-384h128v128h128v-384h-128v128h-128v-512h256v128h128v128h128v-384h-896z" />
<glyph unicode="&#x396;" d="M0 0v384h128v128h128v128h128v128h128v128h128v256h-384v-128h-128v-128h-128v384h896v-384h-128v-128h-128v-128h-128v-128h-128v-128h-128v-256h384v128h128v128h128v-384h-896z" />
<glyph unicode="&#x397;" d="M0 0v1280h256v-512h384v512h256v-1280h-256v640h-384v-640h-256z" />
<glyph unicode="&#x398;" d="M0 256v768h128v128h128v128h384v-128h128v-128h128v-768h-128v-128h-128v-128h-384v128h-128v128h-128zM256 256h128v-128h128v128h128v384h-384v-384zM256 768h384v256h-128v128h-128v-128h-128v-256z" />
<glyph unicode="&#x399;" d="M256 0v128h128v1024h-128v128h512v-128h-128v-1024h128v-128h-512z" />
<glyph unicode="&#x39a;" d="M0 0v128h128v1024h-128v128h384v-512h128v128h128v384h256v-384h-128v-128h-128v-256h128v-128h128v-384h-256v384h-128v128h-128v-512h-384z" />
<glyph unicode="&#x39b;" d="M0 0v512h128v256h128v256h128v256h128v-256h128v-256h128v-256h128v-512h-256v512h-128v256h-128v-256h-128v-512h-256z" />
<glyph unicode="&#x39c;" d="M0 0v1280h256v-128h128v-128h128v128h128v128h256v-1280h-256v768h-128v-128h-128v128h-128v-768h-256z" />
<glyph unicode="&#x39d;" d="M0 0v1280h256v-128h128v-128h128v-128h128v384h256v-1280h-256v512h-128v128h-128v128h-128v-768h-256z" />
<glyph unicode="&#x39e;" d="M0 0v256h256v-128h384v128h256v-256h-896zM0 1024v256h896v-256h-256v128h-384v-128h-256zM128 640v128h640v-128h-640z" />
<glyph unicode="&#x39f;" d="M0 128v1024h128v128h640v-128h128v-1024h-128v-128h-640v128h-128zM256 128h384v1024h-384v-1024z" />
<glyph unicode="&#x3a0;" d="M0 0v1280h896v-1280h-256v1152h-384v-1152h-256z" />
<glyph unicode="&#x3a1;" d="M0 0v128h128v1024h-128v128h768v-128h128v-384h-128v-128h-384v-512h128v-128h-512zM384 768h256v384h-256v-384z" />
<glyph unicode="&#x3a3;" d="M0 0v256h128v128h128v128h128v256h-128v128h-128v128h-128v256h896v-384h-128v128h-128v128h-384v-128h128v-128h128v-128h128v-256h-128v-128h-128v-128h-128v-128h384v128h128v128h128v-384h-896z" />
<glyph unicode="&#x3a4;" d="M128 896v384h768v-384h-128v128h-128v-896h128v-128h-512v128h128v896h-128v-128h-128z" />
<glyph unicode="&#x3a5;" d="M128 768v512h256v-512h256v512h256v-512h-128v-128h-128v-512h128v-128h-512v128h128v512h-128v128h-128z" />
<glyph unicode="&#x3a6;" d="M0 384v512h128v128h256v128h-128v128h384v-128h-128v-128h256v-128h128v-512h-128v-128h-256v-128h128v-128h-384v128h128v128h-256v128h-128zM256 384h128v512h-128v-512zM512 384h128v512h-128v-512z" />
<glyph unicode="&#x3a7;" d="M0 0v256h128v256h128v256h-128v256h-128v256h256v-256h128v-128h128v128h128v256h256v-256h-128v-256h-128v-256h128v-256h128v-256h-256v256h-128v128h-128v-128h-128v-256h-256z" />
<glyph unicode="&#x3a8;" d="M0 512v768h256v-768h128v768h128v-768h128v768h256v-768h-128v-128h-256v-256h128v-128h-384v128h128v256h-256v128h-128z" />
<glyph unicode="&#x3a9;" d="M0 0v128h128v384h-128v512h128v128h128v128h384v-128h128v-128h128v-512h-128v-384h128v-128h-384v512h128v512h-128v128h-128v-128h-128v-512h128v-512h-384z" />
<glyph unicode="&#x3aa;" d="M128 1280v128h256v-128h-256zM256 0v128h128v896h-128v128h512v-128h-128v-896h128v-128h-512zM640 1280v128h256v-128h-256z" />
<glyph unicode="&#x3ab;" d="M128 640v512h256v-512h256v512h256v-512h-128v-128h-128v-384h128v-128h-512v128h128v384h-128v128h-128zM128 1280v128h256v-128h-256zM640 1280v128h256v-128h-256z" />
<glyph unicode="&#x3ac;" d="M0 128v640h128v128h384v-128h-256v-640h256v-128h-384v128h-128zM384 1024v128h128v128h256v-128h-128v-128h-256zM512 128v640h128v128h128v-768h128v-128h-256v128h-128z" />
<glyph unicode="&#x3ad;" d="M128 128v256h128v128h-128v256h128v128h640v-128h-512v-256h256v-128h-256v-256h512v-128h-640v128h-128zM512 1024v128h128v128h256v-128h-128v-128h-256z" />
<glyph unicode="&#x3ae;" d="M0 768v128h256v-128h128v-768h-256v768h-128zM384 768v128h384v-128h128v-1152h-256v1152h-256zM384 1024v128h128v128h256v-128h-128v-128h-256z" />
<glyph unicode="&#x3af;" d="M256 128v768h256v-768h128v-128h-256v128h-128zM384 1024v128h128v128h256v-128h-128v-128h-256zM640 128v128h128v-128h-128z" />
<glyph unicode="&#x3b0;" d="M0 128v768h256v-768h256v768h384v-128h-128v-640h-128v-128h-512v128h-128zM0 1024v128h256v-128h-256zM256 1280v128h128v128h256v-128h-128v-128h-256zM512 1024v128h256v-128h-256z" />
<glyph unicode="&#x3b1;" d="M0 128v640h128v128h384v-128h-256v-640h256v-128h-384v128h-128zM512 128v640h128v128h128v-768h128v-128h-256v128h-128z" />
<glyph unicode="&#x3b2;" d="M0 -384v1536h128v128h512v-128h128v-256h-128v-128h128v-128h128v-512h-128v-128h-512v-256h-128v-128h-128zM256 128h384v512h-384v-512zM256 768h128v128h128v256h-256v-384z" />
<glyph unicode="&#x3b3;" d="M0 768v128h256v-128h128v-256h128v256h128v128h256v-128h-128v-256h-128v-384h128v-384h-128v-128h-384v128h-128v384h128v384h-128v256h-128zM384 128v-384h128v384h-128z" />
<glyph unicode="&#x3b4;" d="M128 128v512h128v128h256v128h-128v128h-128v128h128v128h512v-128h-384v-128h128v-128h128v-128h128v-640h-128v-128h-512v128h-128zM384 128h256v512h-256v-512z" />
<glyph unicode="&#x3b5;" d="M128 128v256h128v128h-128v256h128v128h640v-128h-512v-256h256v-128h-256v-256h512v-128h-640v128h-128z" />
<glyph unicode="&#x3b6;" d="M0 256v512h128v128h128v128h-128v128h-128v128h256v-128h512v-128h-256v-128h-128v-128h-128v-512h128v-128h384v-128h128v-128h-128v-128h-384v128h256v128h-384v128h-128v128h-128z" />
<glyph unicode="&#x3b7;" d="M0 768v128h256v-128h128v-768h-256v768h-128zM384 768v128h384v-128h128v-1152h-256v1152h-256z" />
<glyph unicode="&#x3b8;" d="M0 384v128h256v-128h128v-256h256v384h-256v128h-128v128h-128v384h128v128h512v-128h128v-1024h-128v-128h-512v128h-128v256h-128zM384 768h128v-128h128v512h-256v-384z" />
<glyph unicode="&#x3b9;" d="M256 128v768h256v-768h128v-128h-256v128h-128zM640 128v128h128v-128h-128z" />
<glyph unicode="&#x3ba;" d="M0 0v896h256v-384h128v128h128v128h128v128h256v-128h-128v-128h-128v-256h128v-128h128v-256h-256v256h-128v128h-128v-128h-128v-256h-256z" />
<glyph unicode="&#x3bb;" d="M128 0v384h128v128h128v128h128v128h128v384h-256v-128h-256v128h128v128h512v-128h128v-1152h-256v512h-128v-128h-128v-384h-256z" />
<glyph unicode="&#x3bc;" d="M0 -384v1280h256v-640h128v-128h-128v-512h-256zM384 0v128h128v768h256v-768h-128v-128h-256zM768 0v128h128v-128h-128z" />
<glyph unicode="&#x3bd;" d="M0 768v128h384v-640h128v128h128v512h256v-512h-128v-128h-128v-128h-128v-128h-256v128h-128v640h-128z" />
<glyph unicode="&#x3be;" d="M0 128v256h128v256h-128v256h128v256h-128v128h256v-128h512v-128h-384v-128h-128v-256h512v-128h-384v-128h-128v-256h512v-128h128v-128h-128v-128h-384v128h256v128h-512v128h-128z" />
<glyph unicode="&#x3bf;" d="M0 128v640h128v128h640v-128h128v-640h-128v-128h-640v128h-128zM256 128h384v640h-384v-640z" />
<glyph unicode="&#x3c0;" d="M0 768v128h896v-128h-128v-768h-256v768h-128v-768h-256v768h-128z" />
<glyph unicode="&#x3c1;" d="M0 -384v1152h128v128h640v-128h128v-640h-128v-128h-384v128h256v640h-384v-512h128v-128h-128v-512h-256z" />
<glyph unicode="&#x3c2;" d="M0 384v384h128v128h640v-128h128v-128h-256v128h-384v-384h128v-128h384v-128h128v-256h-128v-128h-640v128h512v256h-384v128h-128v128h-128z" />
<glyph unicode="&#x3c3;" d="M0 128v640h128v128h768v-128h-256v-128h128v-512h-128v-128h-512v128h-128zM256 128h256v640h-256v-640z" />
<glyph unicode="&#x3c4;" d="M128 768v128h768v-128h-256v-640h128v-128h-256v128h-128v640h-256zM768 128v128h128v-128h-128z" />
<glyph unicode="&#x3c5;" d="M0 128v768h256v-768h256v768h384v-128h-128v-640h-128v-128h-512v128h-128z" />
<glyph unicode="&#x3c6;" d="M0 128v512h128v128h128v-640h128v768h384v-128h128v-640h-128v-128h-256v-384h-128v384h-256v128h-128zM512 128h128v640h-128v-640z" />
<glyph unicode="&#x3c7;" d="M0 0v128h128v-128h-128zM0 768v128h256v-128h128v-128h128v128h256v-128h-128v-384h128v-128h128v-128h-256v128h-128v128h-128v-128h-256v128h128v384h-128v128h-128zM768 768v128h128v-128h-128z" />
<glyph unicode="&#x3c8;" d="M0 128v768h256v-768h128v640h128v-640h128v768h256v-768h-128v-128h-256v-384h-128v384h-256v128h-128z" />
<glyph unicode="&#x3c9;" d="M0 128v640h128v128h128v-768h128v-128h-256v128h-128zM384 128v384h128v-384h-128zM512 0v128h128v768h128v-128h128v-640h-128v-128h-256z" />
<glyph unicode="&#x3ca;" d="M0 1152v128h256v-128h-256zM256 128v768h256v-768h128v-128h-256v128h-128zM512 1152v128h256v-128h-256zM640 128v128h128v-128h-128z" />
<glyph unicode="&#x3cb;" d="M0 128v768h256v-768h256v768h384v-128h-128v-640h-128v-128h-512v128h-128zM0 1152v128h256v-128h-256zM512 1152v128h256v-128h-256z" />
<glyph unicode="&#x3cc;" d="M0 128v640h128v128h640v-128h128v-640h-128v-128h-640v128h-128zM256 128h384v640h-384v-640zM384 1024v128h128v128h256v-128h-128v-128h-256z" />
<glyph unicode="&#x3cd;" d="M0 128v768h256v-768h256v768h384v-128h-128v-640h-128v-128h-512v128h-128zM384 1024v128h128v128h256v-128h-128v-128h-256z" />
<glyph unicode="&#x3ce;" d="M0 128v640h128v128h128v-768h128v-128h-256v128h-128zM384 128v384h128v-384h-128zM384 1024v128h128v128h256v-128h-128v-128h-256zM512 0v128h128v768h128v-128h128v-640h-128v-128h-256z" />
<glyph unicode="&#x3d0;" d="M0 0v1152h128v128h512v-128h128v-384h-128v-128h128v-128h128v-384h-128v-128h-256v128h128v384h-128v128h-128v128h128v384h-256v-1152h-256z" />
<glyph unicode="&#x3f4;" d="M0 256v640h128v128h128v128h384v-128h128v-128h128v-640h-128v-128h-128v-128h-384v128h-128v128h-128zM256 256h128v-128h128v128h128v256h-384v-256zM256 640h384v256h-128v128h-128v-128h-128v-256z" />
<glyph unicode="&#x400;" d="M0 0v128h128v896h-128v128h896v-384h-128v128h-128v128h-256v-384h128v128h128v-384h-128v128h-128v-384h256v128h128v128h128v-384h-896zM256 1408v128h256v-128h128v-128h-256v128h-128z" />
<glyph unicode="&#x401;" d="M0 0v128h128v896h-128v128h896v-384h-128v128h-128v128h-256v-384h128v128h128v-384h-128v128h-128v-384h256v128h128v128h128v-384h-896zM0 1280v128h256v-128h-256zM640 1280v128h256v-128h-256z" />
<glyph unicode="&#x402;" d="M0 0v128h128v1024h-128v128h768v-256h-128v128h-256v-384h128v-128h-128v-640h-384zM512 0h128v768h-128v128h256v-128h128v-768h-128v-128h-256v128z" />
<glyph unicode="&#x403;" d="M0 0v128h128v896h-128v128h896v-384h-128v128h-128v128h-256v-896h128v-128h-512zM384 1280v128h128v128h256v-128h-128v-128h-256z" />
<glyph unicode="&#x404;" d="M0 256v768h128v128h128v128h512v-128h128v-256h-128v128h-128v128h-256v-128h-128v-256h256v128h128v-384h-128v128h-256v-384h128v-128h256v128h128v128h128v-256h-128v-128h-512v128h-128v128h-128z" />
<glyph unicode="&#x405;" d="M0 128v256h256v-256h384v384h-128v128h-256v128h-128v128h-128v256h128v128h640v-128h128v-256h-256v256h-384v-256h128v-128h256v-128h128v-128h128v-384h-128v-128h-640v128h-128z" />
<glyph unicode="&#x406;" d="M256 0v128h128v1024h-128v128h512v-128h-128v-1024h128v-128h-512z" />
<glyph unicode="&#x407;" d="M128 1280v128h256v-128h-256zM256 0v128h128v896h-128v128h512v-128h-128v-896h128v-128h-512zM640 1280v128h256v-128h-256z" />
<glyph unicode="&#x408;" d="M0 128v384h256v-384h256v1024h-128v128h512v-128h-128v-1024h-128v-128h-512v128h-128z" />
<glyph unicode="&#x409;" d="M0 0v1280h768v-128h-128v-384h128v-128h-128v-512h128v-128h-384v1152h-128v-1152h-256zM768 128v512h128v-512h-128z" />
<glyph unicode="&#x40a;" d="M0 0v1280h256v-512h128v512h256v-512h128v-128h-128v-512h128v-128h-384v640h-128v-640h-256zM768 128v512h128v-512h-128z" />
<glyph unicode="&#x40b;" d="M0 0v128h128v1024h-128v128h768v-256h-128v128h-256v-384h384v-128h128v-640h-256v640h-256v-640h-384z" />
<glyph unicode="&#x40c;" d="M0 0v128h128v896h-128v128h384v-512h128v128h128v384h256v-384h-128v-128h-128v-128h128v-128h128v-384h-256v384h-128v128h-128v-512h-384zM384 1280v128h128v128h256v-128h-128v-128h-256z" />
<glyph unicode="&#x40d;" d="M0 0v1152h256v-640h128v128h128v128h128v384h256v-1152h-256v384h-128v-128h-128v-128h-128v-128h-256zM256 1408v128h256v-128h128v-128h-256v128h-128z" />
<glyph unicode="&#x40e;" d="M0 128v128h256v-128h384v384h-512v128h-128v512h256v-512h384v512h256v-1024h-128v-128h-640v128h-128zM128 1408v128h256v-128h128v128h256v-128h-128v-128h-384v128h-128z" />
<glyph unicode="&#x40f;" d="M0 0v128h128v1024h-128v128h384v-1152h128v1152h384v-128h-128v-1024h128v-128h-384v-256h-128v256h-384z" />
<glyph unicode="&#x410;" d="M0 0v896h128v128h128v128h128v128h128v-128h128v-128h128v-128h128v-896h-256v512h-384v-512h-256zM256 640h384v256h-128v128h-128v-128h-128v-256z" />
<glyph unicode="&#x411;" d="M0 0v128h128v1024h-128v128h896v-384h-128v128h-128v128h-256v-384h384v-128h128v-512h-128v-128h-768zM384 128h256v512h-256v-512z" />
<glyph unicode="&#x412;" d="M0 0v128h128v1024h-128v128h768v-128h128v-384h-128v-128h128v-512h-128v-128h-768zM384 128h256v512h-256v-512zM384 768h256v384h-256v-384z" />
<glyph unicode="&#x413;" d="M0 0v128h128v1024h-128v128h896v-384h-128v128h-128v128h-256v-1024h128v-128h-512z" />
<glyph unicode="&#x414;" d="M0 128h128v896h128v128h128v128h512v-1152h128v-384h-128v128h-128v128h-512v-128h-128v-128h-128v384zM384 128h256v1024h-128v-128h-128v-896z" />
<glyph unicode="&#x415;" d="M0 0v128h128v1024h-128v128h896v-384h-128v128h-128v128h-256v-384h128v128h128v-384h-128v128h-128v-512h256v128h128v128h128v-384h-896z" />
<glyph unicode="&#x416;" d="M0 0v512h128v128h128v128h-128v128h-128v384h256v-384h128v384h128v-384h128v384h256v-384h-128v-128h-128v-128h128v-128h128v-512h-256v512h-128v-512h-128v512h-128v-512h-256z" />
<glyph unicode="&#x417;" d="M0 128v256h128v-128h128v-128h384v512h-384v128h384v384h-384v-128h-128v-128h-128v256h128v128h640v-128h128v-384h-128v-128h128v-512h-128v-128h-640v128h-128z" />
<glyph unicode="&#x418;" d="M0 0v1280h256v-640h128v128h128v128h128v384h256v-1280h-256v512h-128v-128h-128v-128h-128v-256h-256z" />
<glyph unicode="&#x419;" d="M0 0v1152h256v-640h128v128h128v128h128v384h256v-1152h-256v384h-128v-128h-128v-128h-128v-128h-256zM128 1408v128h256v-128h128v128h256v-128h-128v-128h-384v128h-128z" />
<glyph unicode="&#x41a;" d="M0 0v128h128v1024h-128v128h384v-512h128v128h128v384h256v-384h-128v-128h-128v-256h128v-128h128v-384h-256v384h-128v128h-128v-512h-384z" />
<glyph unicode="&#x41b;" d="M0 0v128h128v896h128v128h128v128h512v-1280h-256v1152h-128v-128h-128v-896h-128v-128h-256z" />
<glyph unicode="&#x41c;" d="M0 0v1280h256v-128h128v-128h128v128h128v128h256v-1280h-256v768h-128v-128h-128v128h-128v-768h-256z" />
<glyph unicode="&#x41d;" d="M0 0v1280h256v-512h384v512h256v-1280h-256v640h-384v-640h-256z" />
<glyph unicode="&#x41e;" d="M0 128v1024h128v128h640v-128h128v-1024h-128v-128h-640v128h-128zM256 128h384v1024h-384v-1024z" />
<glyph unicode="&#x41f;" d="M0 0v1280h896v-1280h-256v1152h-384v-1152h-256z" />
<glyph unicode="&#x420;" d="M0 0v128h128v1024h-128v128h768v-128h128v-384h-128v-128h-384v-512h128v-128h-512zM384 768h256v384h-256v-384z" />
<glyph unicode="&#x421;" d="M0 256v768h128v128h128v128h512v-128h128v-256h-128v128h-128v128h-256v-128h-128v-768h128v-128h256v128h128v128h128v-256h-128v-128h-512v128h-128v128h-128z" />
<glyph unicode="&#x422;" d="M128 896v384h768v-384h-128v128h-128v-896h128v-128h-512v128h128v896h-128v-128h-128z" />
<glyph unicode="&#x423;" d="M0 128v128h256v-128h384v384h-512v128h-128v640h256v-640h384v640h256v-1152h-128v-128h-640v128h-128z" />
<glyph unicode="&#x424;" d="M0 384v512h128v128h256v128h-128v128h384v-128h-128v-128h256v-128h128v-512h-128v-128h-256v-128h128v-128h-384v128h128v128h-256v128h-128zM256 384h128v512h-128v-512zM512 384h128v512h-128v-512z" />
<glyph unicode="&#x425;" d="M0 0v256h128v256h128v256h-128v256h-128v256h256v-256h128v-128h128v128h128v256h256v-256h-128v-256h-128v-256h128v-256h128v-256h-256v256h-128v128h-128v-128h-128v-256h-256z" />
<glyph unicode="&#x426;" d="M0 0v1280h256v-1152h256v1152h256v-1152h128v-384h-128v128h-128v128h-640z" />
<glyph unicode="&#x427;" d="M0 640v640h256v-640h384v640h256v-1280h-256v512h-512v128h-128z" />
<glyph unicode="&#x428;" d="M0 0v1280h256v-1152h128v1152h128v-1152h128v1152h256v-1280h-896z" />
<glyph unicode="&#x429;" d="M0 0v1280h256v-1152h128v1152h128v-1152h128v1152h256v-1152h128v-384h-128v128h-128v128h-768z" />
<glyph unicode="&#x42a;" d="M0 896v384h512v-512h256v-128h128v-512h-128v-128h-640v128h128v1024h-128v-256h-128zM512 128h128v512h-128v-512z" />
<glyph unicode="&#x42b;" d="M0 0v1280h256v-512h128v-128h-128v-512h128v-128h-384zM384 128v512h128v-512h-128zM640 0v1280h256v-1280h-256z" />
<glyph unicode="&#x42c;" d="M0 0v128h128v1024h-128v128h512v-128h-128v-384h384v-128h128v-512h-128v-128h-768zM384 128h256v512h-256v-512z" />
<glyph unicode="&#x42d;" d="M0 128v256h128v-128h128v-128h256v128h128v384h-256v-128h-128v384h128v-128h256v256h-128v128h-256v-128h-128v-128h-128v256h128v128h512v-128h128v-128h128v-768h-128v-128h-128v-128h-512v128h-128z" />
<glyph unicode="&#x42e;" d="M0 0v1280h256v-512h128v384h128v-1024h-128v512h-128v-640h-256zM512 0v128h128v1024h-128v128h256v-128h128v-1024h-128v-128h-256z" />
<glyph unicode="&#x42f;" d="M0 0v512h128v256h-128v384h128v128h768v-128h-128v-1024h128v-128h-384v640h-128v-128h-128v-512h-256zM256 768h256v384h-256v-384z" />
<glyph unicode="&#x430;" d="M0 128v384h128v128h384v128h-384v128h512v-128h128v-640h128v-128h-256v128h-128v384h-256v-384h256v-128h-384v128h-128z" />
<glyph unicode="&#x431;" d="M0 128v768h128v128h384v128h256v-128h-128v-128h-384v-256h512v-128h128v-384h-128v-128h-640v128h-128zM256 128h384v384h-384v-384z" />
<glyph unicode="&#x432;" d="M0 0v128h128v640h-128v128h768v-128h128v-256h-128v-128h128v-256h-128v-128h-768zM384 128h256v256h-256v-256zM384 512h256v256h-256v-256z" />
<glyph unicode="&#x433;" d="M0 0v128h128v640h-128v128h896v-384h-128v128h-128v128h-256v-640h128v-128h-512z" />
<glyph unicode="&#x434;" d="M0 -256v768h128v128h128v256h512v-768h128v-384h-128v128h-128v128h-384v-128h-128v-128h-128zM256 128h256v512h-128v-128h-128v-384z" />
<glyph unicode="&#x435;" d="M0 128v640h128v128h640v-128h128v-256h-640v-384h384v128h256v-128h-128v-128h-640v128h-128zM256 640h384v128h-384v-128z" />
<glyph unicode="&#x436;" d="M0 0v384h128v128h-128v384h256v-384h128v384h128v-384h128v384h256v-384h-128v-128h128v-384h-256v384h-128v-384h-128v384h-128v-384h-256z" />
<glyph unicode="&#x437;" d="M0 128v128h256v-128h384v256h-256v128h256v256h-384v-128h-256v128h128v128h640v-128h128v-256h-128v-128h128v-256h-128v-128h-640v128h-128z" />
<glyph unicode="&#x438;" d="M0 0v896h256v-512h128v128h128v128h128v256h256v-896h-256v384h-128v-128h-128v-128h-128v-128h-256z" />
<glyph unicode="&#x439;" d="M0 0v896h256v-512h128v128h128v128h128v256h256v-896h-256v384h-128v-128h-128v-128h-128v-128h-256zM128 1152v128h256v-128h128v128h256v-128h-128v-128h-384v128h-128z" />
<glyph unicode="&#x43a;" d="M0 0v128h128v640h-128v128h384v-384h128v128h128v256h256v-256h-128v-128h-128v-128h128v-128h128v-256h-256v256h-128v128h-128v-384h-384z" />
<glyph unicode="&#x43b;" d="M0 0v128h128v512h128v128h128v128h512v-896h-256v768h-128v-128h-128v-512h-128v-128h-256z" />
<glyph unicode="&#x43c;" d="M0 0v896h256v-128h128v-128h128v128h128v128h256v-896h-256v512h-128v-256h-128v256h-128v-512h-256z" />
<glyph unicode="&#x43d;" d="M0 0v896h256v-384h384v384h256v-896h-256v384h-384v-384h-256z" />
<glyph unicode="&#x43e;" d="M0 128v640h128v128h640v-128h128v-640h-128v-128h-640v128h-128zM256 128h384v640h-384v-640z" />
<glyph unicode="&#x43f;" d="M0 0v896h896v-896h-256v768h-384v-768h-256z" />
<glyph unicode="&#x440;" d="M0 -256h128v1024h-128v128h256v-128h128v-640h256v640h-256v128h384v-128h128v-640h-128v-128h-384v-256h128v-128h-512v128z" />
<glyph unicode="&#x441;" d="M0 128v640h128v128h640v-128h128v-128h-256v128h-384v-640h384v128h256v-128h-128v-128h-640v128h-128z" />
<glyph unicode="&#x442;" d="M128 640v256h768v-256h-128v128h-128v-640h128v-128h-512v128h128v640h-128v-128h-128z" />
<glyph unicode="&#x443;" d="M0 128v768h256v-768h384v768h256v-1024h-128v-128h-128v-128h-640v128h512v128h128v128h-512v128h-128z" />
<glyph unicode="&#x444;" d="M0 128v640h128v128h256v384h128v-384h256v-128h128v-640h-128v-128h-256v-384h-128v384h-256v128h-128zM256 128h128v640h-128v-640zM512 128h128v640h-128v-640z" />
<glyph unicode="&#x445;" d="M0 0v128h128v128h128v384h-128v128h-128v128h256v-128h128v-128h128v128h128v128h256v-128h-128v-128h-128v-384h128v-128h128v-128h-256v128h-128v128h-128v-128h-128v-128h-256z" />
<glyph unicode="&#x446;" d="M0 0v896h256v-768h256v768h256v-768h128v-384h-128v128h-128v128h-640z" />
<glyph unicode="&#x447;" d="M0 512v384h256v-384h384v384h256v-896h-256v384h-512v128h-128z" />
<glyph unicode="&#x448;" d="M0 0v896h256v-768h128v768h128v-768h128v768h256v-896h-896z" />
<glyph unicode="&#x449;" d="M0 0v896h256v-768h128v768h128v-768h128v768h256v-768h128v-384h-128v128h-128v128h-768z" />
<glyph unicode="&#x44a;" d="M0 640v256h512v-384h256v-128h128v-256h-128v-128h-640v128h128v640h-128v-128h-128zM512 128h128v256h-128v-256z" />
<glyph unicode="&#x44b;" d="M0 0v896h256v-384h128v-128h-128v-256h128v-128h-384zM384 128v256h128v-256h-128zM640 0v896h256v-896h-256z" />
<glyph unicode="&#x44c;" d="M128 0v128h128v640h-128v128h512v-128h-128v-256h256v-128h128v-256h-128v-128h-640zM512 128h128v256h-128v-256z" />
<glyph unicode="&#x44d;" d="M0 128v128h256v-128h384v384h-256v128h256v128h-384v-128h-256v128h128v128h640v-128h128v-640h-128v-128h-640v128h-128z" />
<glyph unicode="&#x44e;" d="M0 0v896h256v-384h128v256h128v-640h-128v256h-128v-384h-256zM512 0v128h128v640h-128v128h256v-128h128v-640h-128v-128h-256z" />
<glyph unicode="&#x44f;" d="M0 0v128h128v256h128v128h-128v256h128v128h640v-128h-128v-640h128v-128h-384v384h-128v-384h-384zM384 512h128v256h-128v-256z" />
<glyph unicode="&#x450;" d="M0 128v640h128v128h640v-128h128v-256h-640v-384h384v128h256v-128h-128v-128h-640v128h-128zM128 1280v128h256v-128h128v-128h128v-128h-256v128h-128v128h-128zM256 640h384v128h-384v-128z" />
<glyph unicode="&#x451;" d="M0 128v640h128v128h640v-128h128v-256h-640v-384h384v128h256v-128h-128v-128h-640v128h-128zM0 1152v128h256v-128h-256zM256 640h384v128h-384v-128zM640 1152v128h256v-128h-256z" />
<glyph unicode="&#x452;" d="M0 0v128h128v896h-128v128h128v128h256v-128h256v-128h-256v-256h128v-128h-128v-640h-384zM512 -256h128v1024h-128v128h256v-128h128v-1024h-128v-128h-256v128z" />
<glyph unicode="&#x453;" d="M0 0v128h128v640h-128v128h896v-384h-128v128h-128v128h-256v-640h128v-128h-512zM256 1024v128h128v128h128v128h256v-128h-128v-128h-128v-128h-256z" />
<glyph unicode="&#x454;" d="M0 128v640h128v128h640v-128h128v-128h-256v128h-384v-256h384v-128h-384v-256h384v128h256v-128h-128v-128h-640v128h-128z" />
<glyph unicode="&#x455;" d="M0 128v128h256v-128h384v128h-128v128h-256v128h-128v128h-128v128h128v128h640v-128h128v-128h-256v128h-384v-128h128v-128h256v-128h128v-128h128v-128h-128v-128h-640v128h-128z" />
<glyph unicode="&#x456;" d="M256 0v128h128v640h-128v128h384v-768h128v-128h-512zM384 1024v256h256v-256h-256z" />
<glyph unicode="&#x457;" d="M128 1152v128h256v-128h-256zM256 0v128h128v640h-128v128h384v-768h128v-128h-512zM640 1152v128h256v-128h-256z" />
<glyph unicode="&#x458;" d="M0 0h256v-256h256v1024h-128v128h384v-1152h-128v-128h-512v128h-128v256zM512 1024v256h256v-256h-256z" />
<glyph unicode="&#x459;" d="M0 0v896h768v-128h-128v-256h128v-128h-128v-256h128v-128h-384v768h-128v-768h-256zM768 128v256h128v-256h-128z" />
<glyph unicode="&#x45a;" d="M0 0v896h256v-384h128v384h256v-384h128v-128h-128v-256h128v-128h-384v384h-128v-384h-256zM768 128v256h128v-256h-128z" />
<glyph unicode="&#x45b;" d="M0 0v128h128v896h-128v128h128v128h256v-128h256v-128h-256v-128h384v-128h128v-768h-256v768h-256v-768h-384z" />
<glyph unicode="&#x45c;" d="M0 0v128h128v640h-128v128h384v-384h128v128h128v256h256v-256h-128v-128h-128v-128h128v-128h128v-256h-256v256h-128v128h-128v-384h-384zM256 1024v128h128v128h128v128h256v-128h-128v-128h-128v-128h-256z" />
<glyph unicode="&#x45d;" d="M0 0v896h256v-512h128v128h128v128h128v256h256v-896h-256v384h-128v-128h-128v-128h-128v-128h-256zM128 1280v128h256v-128h128v-128h128v-128h-256v128h-128v128h-128z" />
<glyph unicode="&#x45e;" d="M0 128v768h256v-768h384v768h256v-1024h-128v-128h-128v-128h-640v128h512v128h128v128h-512v128h-128zM128 1152v128h256v-128h128v128h256v-128h-128v-128h-384v128h-128z" />
<glyph unicode="&#x45f;" d="M0 0v128h128v640h-128v128h384v-768h128v768h384v-128h-128v-640h128v-128h-384v-256h-128v256h-384z" />
<glyph unicode="&#x490;" d="M0 0v128h128v1024h-128v128h640v128h128v128h128v-384h-512v-1024h128v-128h-512z" />
<glyph unicode="&#x491;" d="M0 0v128h128v640h-128v128h640v128h128v128h128v-384h-512v-640h128v-128h-512z" />
<glyph unicode="&#x5be;" d="M128 896v128h768v-128h-768z" />
<glyph unicode="&#x5d0;" d="M0 0v512h128v256h-128v256h256v-256h128v-128h128v-128h128v512h256v-512h-128v-256h128v-256h-256v256h-128v128h-128v128h-128v-512h-256z" />
<glyph unicode="&#x5d1;" d="M0 0v128h512v768h-512v128h640v-128h128v-768h128v-128h-896z" />
<glyph unicode="&#x5d2;" d="M0 0v128h256v128h128v128h128v512h-256v128h384v-128h128v-640h128v-256h-256v256h-128v-128h-128v-128h-384z" />
<glyph unicode="&#x5d3;" d="M0 896v128h896v-128h-128v-896h-256v896h-512z" />
<glyph unicode="&#x5d4;" d="M0 0v512h256v-512h-256zM0 896v128h768v-128h128v-896h-256v896h-640z" />
<glyph unicode="&#x5d5;" d="M128 896v128h384v-128h128v-896h-256v896h-256z" />
<glyph unicode="&#x5d6;" d="M0 896v128h768v-128h-256v-384h128v-256h-128v-128h-128v-128h-256v128h128v128h128v256h-128v384h-256z" />
<glyph unicode="&#x5d7;" d="M0 0v768h128v128h-128v128h768v-128h128v-896h-256v896h-256v-128h-128v-768h-256z" />
<glyph unicode="&#x5d8;" d="M0 128v896h256v-896h384v768h-128v128h256v-128h128v-768h-128v-128h-640v128h-128zM384 640v256h128v-256h-128z" />
<glyph unicode="&#x5d9;" d="M128 896v128h384v-128h128v-384h-128v-128h-256v128h128v384h-256z" />
<glyph unicode="&#x5da;" d="M0 896v128h768v-128h128v-384h-128v-768h128v-128h-384v896h128v384h-640z" />
<glyph unicode="&#x5db;" d="M0 0v128h640v768h-640v128h768v-128h128v-768h-128v-128h-768z" />
<glyph unicode="&#x5dc;" d="M0 896v384h256v-256h512v-128h128v-512h-128v-128h-128v-256h-256v256h128v128h128v512h-640z" />
<glyph unicode="&#x5dd;" d="M0 0v768h128v128h-128v128h768v-128h128v-896h-896zM256 128h384v768h-256v-128h-128v-640z" />
<glyph unicode="&#x5de;" d="M0 0v640h128v256h-128v128h256v-128h128v128h384v-128h128v-896h-512v128h256v768h-128v-128h-128v-128h-128v-640h-256z" />
<glyph unicode="&#x5df;" d="M256 896v128h384v-128h128v-256h-128v-896h128v-128h-384v1024h128v256h-256z" />
<glyph unicode="&#x5e0;" d="M128 0v128h384v768h-256v128h384v-128h128v-896h-640z" />
<glyph unicode="&#x5e1;" d="M0 128v640h128v128h-128v128h768v-128h128v-640h-128v-128h-128v-128h-512v128h-128zM256 128h256v128h128v640h-256v-128h-128v-640z" />
<glyph unicode="&#x5e2;" d="M0 0v128h256v128h-128v640h-128v128h384v-896h128v128h128v640h-128v128h384v-768h-128v-128h-128v-128h-640z" />
<glyph unicode="&#x5e3;" d="M0 384v384h128v128h-128v128h640v-128h128v-1152h128v-128h-384v1280h-256v-384h128v-128h-384z" />
<glyph unicode="&#x5e4;" d="M0 0v128h640v768h-384v-384h128v-128h-384v384h128v128h-128v128h768v-128h128v-896h-896z" />
<glyph unicode="&#x5e5;" d="M0 896v128h384v-512h128v128h128v256h-128v128h384v-384h-128v-128h-128v-128h-256v-640h128v-128h-384v1280h-128z" />
<glyph unicode="&#x5e6;" d="M0 0v128h640v128h-128v128h-128v128h-128v128h-128v256h-128v128h384v-384h128v-128h128v-128h128v-128h128v-256h-896zM512 896v128h384v-384h-128v-128h-128v384h-128z" />
<glyph unicode="&#x5e7;" d="M0 896v128h768v-128h128v-384h-128v-256h128v-128h-384v256h128v512h-640zM128 -384v1024h256v-1024h-256z" />
<glyph unicode="&#x5e8;" d="M0 896v128h768v-128h128v-896h-256v896h-640z" />
<glyph unicode="&#x5e9;" d="M0 128v896h256v-640h128v640h128v-768h-256v-128h384v896h256v-896h-128v-128h-640v128h-128z" />
<glyph unicode="&#x5ea;" d="M0 0v256h128v640h-128v128h768v-128h128v-896h-256v896h-256v-896h-384z" />
<glyph unicode="&#x5f0;" d="M0 896v128h256v-128h128v-896h-256v896h-128zM512 896v128h256v-128h128v-896h-256v896h-128z" />
<glyph unicode="&#x5f1;" d="M0 896v128h256v-128h128v-384h-256v384h-128zM512 896v128h256v-128h128v-896h-256v896h-128z" />
<glyph unicode="&#x5f2;" d="M0 896v128h256v-128h128v-384h-256v384h-128zM512 896v128h256v-128h128v-384h-256v384h-128z" />
<glyph unicode="&#x5f3;" d="M256 768v128h128v256h256v-256h-128v-128h-256z" />
<glyph unicode="&#x5f4;" d="M0 768v128h128v256h256v-256h-128v-128h-256zM512 768v128h128v256h256v-256h-128v-128h-256z" />
<glyph unicode="&#x1d1b;" d="M0 768v128h128v128h384v-128h128v128h256v-128h-128v-128h-128v-768h-256v896h-128v-128h-256z" />
<glyph unicode="&#x1d26;" d="M0 0v1280h896v-384h-256v256h-384v-1152h-256z" />
<glyph unicode="&#x1d28;" d="M0 896v128h896v-128h-128v-896h-256v896h-128v-896h-256v896h-128z" />
<glyph unicode="&#x1e80;" d="M0 128v1024h256v-768h128v384h128v-384h128v768h256v-1024h-128v-128h-256v256h-128v-256h-256v128h-128zM256 1408v128h256v-128h128v-128h-256v128h-128z" />
<glyph unicode="&#x1e81;" d="M0 128v768h256v-640h128v384h128v-384h128v640h256v-768h-128v-128h-256v128h-128v-128h-256v128h-128zM128 1280v128h256v-128h128v-128h128v-128h-256v128h-128v128h-128z" />
<glyph unicode="&#x1e82;" d="M0 128v1024h256v-768h128v384h128v-384h128v768h256v-1024h-128v-128h-256v256h-128v-256h-256v128h-128zM256 1280v128h128v128h256v-128h-128v-128h-256z" />
<glyph unicode="&#x1e83;" d="M0 128v768h256v-640h128v384h128v-384h128v640h256v-768h-128v-128h-256v128h-128v-128h-256v128h-128zM128 1024v128h128v128h128v128h256v-128h-128v-128h-128v-128h-256z" />
<glyph unicode="&#x1e84;" d="M0 128v1024h256v-768h128v384h128v-384h128v768h256v-1024h-128v-128h-256v256h-128v-256h-256v128h-128zM0 1280v128h256v-128h-256zM640 1280v128h256v-128h-256z" />
<glyph unicode="&#x1e85;" d="M0 128v768h256v-640h128v384h128v-384h128v640h256v-768h-128v-128h-256v128h-128v-128h-256v128h-128zM0 1152v128h256v-128h-256zM640 1152v128h256v-128h-256z" />
<glyph unicode="&#x1e9f;" d="M128 128v512h128v128h256v128h-128v128h-128v128h128v128h512v-128h-384v-128h128v-128h128v-128h128v-640h-128v-128h-512v128h-128zM384 128h256v512h-256v-512z" />
<glyph unicode="&#x1ef2;" d="M128 640v512h256v-512h256v512h256v-512h-128v-128h-128v-384h128v-128h-512v128h128v384h-128v128h-128zM256 1408v128h256v-128h128v-128h-256v128h-128z" />
<glyph unicode="&#x1ef3;" d="M0 128v768h256v-768h384v768h256v-1024h-128v-128h-128v-128h-640v128h512v128h128v128h-512v128h-128zM128 1280v128h256v-128h128v-128h128v-128h-256v128h-128v128h-128z" />
<glyph unicode="&#x2000;" horiz-adv-x="768" />
<glyph unicode="&#x2001;" horiz-adv-x="1536" />
<glyph unicode="&#x2002;" horiz-adv-x="768" />
<glyph unicode="&#x2003;" horiz-adv-x="1536" />
<glyph unicode="&#x2004;" horiz-adv-x="512" />
<glyph unicode="&#x2005;" horiz-adv-x="384" />
<glyph unicode="&#x2006;" horiz-adv-x="256" />
<glyph unicode="&#x2007;" horiz-adv-x="256" />
<glyph unicode="&#x2008;" horiz-adv-x="192" />
<glyph unicode="&#x2009;" horiz-adv-x="307" />
<glyph unicode="&#x200a;" horiz-adv-x="85" />
<glyph unicode="&#x2010;" d="M128 512v128h768v-128h-768z" />
<glyph unicode="&#x2011;" d="M0 512v128h896v-128h-896z" />
<glyph unicode="&#x2012;" d="M128 512v128h640v-128h-640z" />
<glyph unicode="&#x2013;" d="M128 512v128h640v-128h-640z" />
<glyph unicode="&#x2014;" d="M0 512v128h1024v-128h-1024z" />
<glyph unicode="&#x2015;" d="M0 512v128h1024v-128h-1024z" />
<glyph unicode="&#x2017;" d="M0 0h1024v-128h-1024v128zM0 -256h1024v-128h-1024v128z" />
<glyph unicode="&#x2018;" d="M256 1024v256h128v128h256v-128h-128v-256h-256z" />
<glyph unicode="&#x2019;" d="M256 1024v128h128v256h256v-256h-128v-128h-256z" />
<glyph unicode="&#x201a;" d="M256 -256h128v256h256v-256h-128v-128h-256v128z" />
<glyph unicode="&#x201b;" d="M256 1152v256h256v-256h128v-128h-256v128h-128z" />
<glyph unicode="&#x201c;" d="M0 1024v256h128v128h256v-128h-128v-256h-256zM512 1024v256h128v128h256v-128h-128v-256h-256z" />
<glyph unicode="&#x201d;" d="M0 1024v128h128v256h256v-256h-128v-128h-256zM512 1024v128h128v256h256v-256h-128v-128h-256z" />
<glyph unicode="&#x201e;" d="M0 -256h128v256h256v-256h-128v-128h-256v128zM512 -256h128v256h256v-256h-128v-128h-256v128z" />
<glyph unicode="&#x201f;" d="M0 1152v256h256v-256h128v-128h-256v128h-128zM512 1152v256h256v-256h128v-128h-256v128h-128z" />
<glyph unicode="&#x2020;" d="M128 768v128h256v512h256v-512h256v-128h-256v-1024h-256v1024h-256z" />
<glyph unicode="&#x2021;" d="M128 256v128h256v384h-256v128h256v512h256v-512h256v-128h-256v-384h256v-128h-256v-512h-256v512h-256z" />
<glyph unicode="&#x2022;" d="M256 384v256h128v128h256v-128h128v-256h-128v-128h-256v128h-128z" />
<glyph unicode="&#x2026;" d="M0 0v256h256v-256h-256zM384 0v256h256v-256h-256zM768 0v256h256v-256h-256z" />
<glyph unicode="&#x2027;" d="M384 384v256h256v-256h-256z" />
<glyph unicode="&#x202f;" horiz-adv-x="307" />
<glyph unicode="&#x2030;" d="M0 128v128h128v128h128v128h128v128h128v128h128v128h256v-128h-128v-128h-128v-128h-128v-128h-128v-128h-128v-128h-256zM0 640v256h256v-256h-256zM384 0v256h256v-256h-256zM768 0v256h256v-256h-256z" />
<glyph unicode="&#x2032;" d="M256 1024v128h128v128h128v128h256v-128h-128v-128h-128v-128h-256z" />
<glyph unicode="&#x2033;" d="M0 1024v128h128v128h128v128h256v-128h-128v-128h-128v-128h-256zM384 1024v128h128v128h128v128h256v-128h-128v-128h-128v-128h-256z" />
<glyph unicode="&#x2035;" d="M256 1280v128h256v-128h128v-128h128v-128h-256v128h-128v128h-128z" />
<glyph unicode="&#x2039;" d="M256 512v128h128v128h128v128h256v-128h-128v-128h-128v-128h128v-128h128v-128h-256v128h-128v128h-128z" />
<glyph unicode="&#x203a;" d="M256 256v128h128v128h128v128h-128v128h-128v128h256v-128h128v-128h128v-128h-128v-128h-128v-128h-256z" />
<glyph unicode="&#x203c;" d="M128 0v256h256v-256h-256zM128 384v896h256v-896h-256zM640 0v256h256v-256h-256zM640 384v896h256v-896h-256z" />
<glyph unicode="&#x203e;" d="M128 1280v128h768v-128h-768z" />
<glyph unicode="&#x203f;" d="M0 -128h256v-128h384v128h256v-128h-128v-128h-640v128h-128v128z" />
<glyph unicode="&#x2040;" d="M0 1152v128h128v128h640v-128h128v-128h-256v128h-384v-128h-256z" />
<glyph unicode="&#x2044;" d="M0 0v256h128v128h128v128h128v128h128v128h128v128h128v128h128v-256h-128v-128h-128v-128h-128v-128h-128v-128h-128v-128h-128v-128h-128z" />
<glyph unicode="&#x2054;" d="M0 -256h128v128h640v-128h128v-128h-256v128h-384v-128h-256v128z" />
<glyph unicode="&#x205f;" horiz-adv-x="384" />
<glyph unicode="&#x2074;" d="M0 896v128h128v128h128v-128h128v128h-128v128h128v128h256v-768h-256v256h-384z" />
<glyph unicode="&#x2075;" d="M0 640v128h384v256h-384v384h640v-128h-384v-128h256v-128h128v-256h-128v-128h-512z" />
<glyph unicode="&#x2076;" d="M0 768v512h128v128h384v-128h-256v-128h256v-128h128v-256h-128v-128h-384v128h-128zM256 768h128v256h-128v-256z" />
<glyph unicode="&#x2077;" d="M0 1152v256h640v-256h-128v-128h-128v-384h-256v384h128v128h128v128h-256v-128h-128z" />
<glyph unicode="&#x2078;" d="M0 768v256h128v128h-128v128h128v128h384v-128h128v-128h-128v-128h128v-256h-128v-128h-384v128h-128zM256 768h128v256h-128v-256zM256 1152h128v128h-128v-128z" />
<glyph unicode="&#x2079;" d="M0 1024v256h128v128h384v-128h128v-512h-128v-128h-384v128h256v128h-256v128h-128zM256 1024h128v256h-128v-256z" />
<glyph unicode="&#x207a;" d="M0 1024v128h256v256h256v-256h256v-128h-256v-256h-256v256h-256z" />
<glyph unicode="&#x207b;" d="M128 1024v128h640v-128h-640z" />
<glyph unicode="&#x207f;" d="M0 1280v128h256v-128h128v-640h-256v640h-128zM384 1280v128h256v-128h128v-640h-256v640h-128z" />
<glyph unicode="&#x2081;" d="M128 128v128h128v128h256v-640h128v-128h-512v128h128v384h-128z" />
<glyph unicode="&#x2082;" d="M0 128v128h128v128h384v-128h128v-128h-128v-128h-128v-128h-128v-128h256v128h128v-256h-640v256h128v128h128v128h128v128h-128v-128h-256z" />
<glyph unicode="&#x2083;" d="M0 256v128h512v-128h128v-128h-128v-128h128v-256h-128v-128h-512v128h384v256h-256v128h256v128h-384z" />
<glyph unicode="&#x2084;" d="M0 0h128v128h128v-128h128v128h-128v128h128v128h256v-768h-256v256h-384v128z" />
<glyph unicode="&#x2085;" d="M0 0v384h640v-128h-384v-128h256v-128h128v-256h-128v-128h-512v128h384v256h-384z" />
<glyph unicode="&#x2086;" d="M0 256h128v128h384v-128h-256v-128h256v-128h128v-256h-128v-128h-384v128h-128v512zM256 0v-256h128v256h-128z" />
<glyph unicode="&#x2087;" d="M0 128v256h640v-256h-128v-128h-128v-384h-256v384h128v128h128v128h-256v-128h-128z" />
<glyph unicode="&#x2088;" d="M0 0h128v128h-128v128h128v128h384v-128h128v-128h-128v-128h128v-256h-128v-128h-384v128h-128v256zM256 0v-256h128v256h-128zM256 128h128v128h-128v-128z" />
<glyph unicode="&#x2089;" d="M0 0v256h128v128h384v-128h128v-512h-128v-128h-384v128h256v128h-256v128h-128zM256 0h128v256h-128v-256z" />
<glyph unicode="&#x208a;" d="M0 0h256v256h256v-256h256v-128h-256v-256h-256v256h-256v128z" />
<glyph unicode="&#x208b;" d="M128 0h640v-128h-640v128z" />
<glyph unicode="&#x20a3;" d="M0 0v128h128v128h-128v128h128v768h-128v128h896v-384h-128v128h-128v128h-256v-384h128v128h128v-384h-128v128h-128v-256h128v-128h-128v-128h128v-128h-512z" />
<glyph unicode="&#x20a4;" d="M0 0v256h128v256h-128v128h128v128h-128v128h128v384h128v128h384v-128h128v-256h-128v128h-128v128h-128v-384h128v-128h-128v-128h128v-128h-128v-384h256v128h256v-128h-128v-128h-768z" />
<glyph unicode="&#x20a7;" d="M0 0v1408h640v-128h128v-256h-128v-128h-384v-896h-256zM256 1024h256v256h-256v-256zM384 512v128h128v128h128v128h128v-256h128v-128h-128v-384h128v-128h-256v128h-128v384h-128z" />
<glyph unicode="&#x20aa;" d="M0 128v896h640v-640h-128v512h-384v-768h-128zM256 128v640h128v-512h384v768h128v-896h-640z" />
<glyph unicode="&#x20ac;" d="M0 384v128h128v128h-128v128h128v128h128v128h128v128h384v-128h128v-128h-256v128h-128v-128h-128v-128h384v-128h-384v-128h256v-128h-256v-128h128v-128h128v128h256v-128h-128v-128h-384v128h-128v128h-128v128h-128z" />
<glyph unicode="&#x2105;" d="M0 128v256h128v128h128v128h128v128h128v128h128v128h128v128h128v-256h-128v-128h-128v-128h-128v-128h-128v-128h-128v-128h-128v-128h-128zM0 896v384h128v128h256v-128h-128v-384h128v-128h-256v128h-128zM256 -128v384h128v128h384v-128h128v-384h-128v-128h-384 v128h-128zM384 896v128h128v-128h-128zM384 1152v128h128v-128h-128zM512 -128h128v384h-128v-384z" />
<glyph unicode="&#x2113;" d="M128 128v128h128v-128h-128zM128 512v512h128v128h128v128h128v-128h128v-128h128v-512h-128v-128h-128v-128h128v-128h128v-128h-256v128h-128v128h-128v256h-128zM384 512h128v512h-128v-512zM768 128v128h128v-128h-128z" />
<glyph unicode="&#x2116;" d="M0 0v1280h128v-128h128v-128h128v-128h128v384h512v-512h-256v-128h256v-128h-256v-512h-256v512h-128v128h-128v-640h-256zM768 896h128v256h-128v-256z" />
<glyph unicode="&#x2122;" d="M0 1280v128h512v-128h128v-128h-128v-384h-128v512h-128v-512h-128v512h-128zM640 1024v128h128v-128h-128zM768 1152v128h128v128h128v-640h-128v384h-128z" />
<glyph unicode="&#x2126;" d="M0 0v128h128v512h-128v384h128v128h128v128h384v-128h128v-128h128v-384h-128v-512h128v-128h-384v640h128v384h-128v128h-128v-128h-128v-384h128v-640h-384z" />
<glyph unicode="&#x212e;" d="M0 128v640h128v128h640v-128h128v-256h-640v-384h384v128h256v-128h-128v-128h-640v128h-128zM256 640h384v128h-384v-128z" />
<glyph unicode="&#x2150;" d="M0 128v256h128v128h128v128h128v128h128v128h128v128h128v128h128v-256h-128v-128h-128v-128h-128v-128h-128v-128h-128v-128h-128v-128h-128zM0 768v640h256v-640h-256zM384 0h128v128h128v128h-256v128h512v-256h-128v-128h-128v-256h-256v256z" />
<glyph unicode="&#x2151;" d="M0 128v256h128v128h128v128h128v128h128v128h128v128h128v128h128v-256h-128v-128h-128v-128h-128v-128h-128v-128h-128v-128h-128v-128h-128zM0 768v640h256v-640h-256zM256 128v128h128v128h384v-128h128v-384h-128v-128h-384v128h256v128h-256v128h-128zM512 128h128 v128h-128v-128z" />
<glyph unicode="&#x2153;" d="M0 128v256h128v128h128v128h128v128h128v128h128v128h128v128h128v-256h-128v-128h-128v-128h-128v-128h-128v-128h-128v-128h-128v-128h-128zM0 768v640h256v-640h-256zM384 0v128h256v128h-256v128h384v-128h128v-128h-128v-128h128v-128h-128v-128h-384v128h256v128 h-256z" />
<glyph unicode="&#x2154;" d="M0 128v256h128v128h128v128h128v128h-384v256h128v128h128v128h-256v128h384v-128h128v-128h-128v-128h-128v-128h384v128h128v128h128v-256h-128v-128h-128v-128h-128v-128h-128v-128h-128v-128h-128v-128h-128zM384 0v128h256v128h-256v128h384v-128h128v-128h-128 v-128h128v-128h-128v-128h-384v128h256v128h-256z" />
<glyph unicode="&#x2155;" d="M0 128v256h128v128h128v128h128v128h128v128h128v128h128v128h128v-256h-128v-128h-128v-128h-128v-128h-128v-128h-128v-128h-128v-128h-128zM0 768v640h256v-640h-256zM384 0v384h512v-128h-256v-128h128v-128h128v-128h-128v-128h-384v128h256v128h-256z" />
<glyph unicode="&#x2156;" d="M0 128v256h128v128h128v128h128v128h-384v256h128v128h128v128h-256v128h384v-128h128v-128h-128v-128h-128v-128h384v128h128v128h128v-256h-128v-128h-128v-128h-128v-128h-128v-128h-128v-128h-128v-128h-128zM384 0v384h512v-128h-256v-128h128v-128h128v-128h-128 v-128h-384v128h256v128h-256z" />
<glyph unicode="&#x2157;" d="M0 128v256h128v128h128v128h128v128h128v128h128v128h128v128h128v-256h-128v-128h-128v-128h-128v-128h-128v-128h-128v-128h-128v-128h-128zM0 768v128h256v128h-256v128h256v128h-256v128h384v-128h128v-128h-128v-128h128v-128h-128v-128h-384zM384 0v384h512v-128 h-256v-128h128v-128h128v-128h-128v-128h-384v128h256v128h-256z" />
<glyph unicode="&#x2158;" d="M0 128v256h128v128h128v128h128v128h-128v128h-256v256h128v-128h128v128h-128v128h128v128h256v-512h128v128h128v128h128v-256h-128v-128h-128v-128h-128v-128h-128v-128h-128v-128h-128v-128h-128zM384 0v384h512v-128h-256v-128h128v-128h128v-128h-128v-128h-384 v128h256v128h-256z" />
<glyph unicode="&#x2159;" d="M0 128v256h128v128h128v128h128v128h128v128h128v128h128v128h128v-256h-128v-128h-128v-128h-128v-128h-128v-128h-128v-128h-128v-128h-128zM0 768v640h256v-640h-256zM256 -128v384h128v128h384v-128h-256v-128h256v-128h128v-128h-128v-128h-384v128h-128zM512 0 v-128h128v128h-128z" />
<glyph unicode="&#x215a;" d="M0 128v256h128v128h128v128h128v128h128v128h128v128h128v128h128v-256h-128v-128h-128v-128h-128v-128h-128v-128h-128v-128h-128v-128h-128zM0 768v128h256v128h-256v384h512v-128h-256v-128h128v-128h128v-128h-128v-128h-384zM256 -128v384h128v128h384v-128h-256 v-128h256v-128h128v-128h-128v-128h-384v128h-128zM512 0v-128h128v128h-128z" />
<glyph unicode="&#x215b;" d="M0 128v256h128v128h128v128h128v128h128v128h128v128h128v128h128v-256h-128v-128h-128v-128h-128v-128h-128v-128h-128v-128h-128v-128h-128zM0 768v640h256v-640h-256zM256 0h128v128h-128v128h128v128h384v-128h128v-128h-128v-128h128v-128h-128v-128h-384v128h-128 v128zM512 0v-128h128v128h-128zM512 128h128v128h-128v-128z" />
<glyph unicode="&#x215c;" d="M0 128v256h128v128h128v128h128v128h128v128h128v128h128v128h128v-256h-128v-128h-128v-128h-128v-128h-128v-128h-128v-128h-128v-128h-128zM0 768v128h256v128h-256v128h256v128h-256v128h384v-128h128v-128h-128v-128h128v-128h-128v-128h-384zM256 0h128v128h-128 v128h128v128h384v-128h128v-128h-128v-128h128v-128h-128v-128h-384v128h-128v128zM512 0v-128h128v128h-128zM512 128h128v128h-128v-128z" />
<glyph unicode="&#x215d;" d="M0 128v256h128v128h128v128h128v128h128v128h128v128h128v128h128v-256h-128v-128h-128v-128h-128v-128h-128v-128h-128v-128h-128v-128h-128zM0 768v128h256v128h-256v384h512v-128h-256v-128h128v-128h128v-128h-128v-128h-384zM256 0h128v128h-128v128h128v128h384 v-128h128v-128h-128v-128h128v-128h-128v-128h-384v128h-128v128zM512 0v-128h128v128h-128zM512 128h128v128h-128v-128z" />
<glyph unicode="&#x215e;" d="M0 128v256h128v128h128v128h128v128h128v128h128v128h128v128h128v-256h-128v-128h-128v-128h-128v-128h-128v-128h-128v-128h-128v-128h-128zM0 768v256h128v128h128v128h-256v128h512v-256h-128v-128h-128v-256h-256zM256 0h128v128h-128v128h128v128h384v-128h128 v-128h-128v-128h128v-128h-128v-128h-384v128h-128v128zM512 0v-128h128v128h-128zM512 128h128v128h-128v-128z" />
<glyph unicode="&#x2190;" d="M0 512v128h128v128h128v128h256v-128h-128v-128h512v-128h-512v-128h128v-128h-256v128h-128v128h-128z" />
<glyph unicode="&#x2191;" d="M128 896v128h128v128h128v128h256v-128h128v-128h128v-128h-256v-896h-256v896h-256z" />
<glyph unicode="&#x2192;" d="M0 512v128h512v128h-128v128h256v-128h128v-128h128v-128h-128v-128h-128v-128h-256v128h128v128h-512z" />
<glyph unicode="&#x2193;" d="M128 256v128h256v896h256v-896h256v-128h-128v-128h-128v-128h-256v128h-128v128h-128z" />
<glyph unicode="&#x2194;" d="M0 512v128h128v128h128v128h128v-256h128v256h128v-128h128v-128h128v-128h-128v-128h-128v-128h-128v256h-128v-256h-128v128h-128v128h-128z" />
<glyph unicode="&#x2195;" d="M128 384v128h256v384h-256v128h128v128h128v128h256v-128h128v-128h128v-128h-256v-384h256v-128h-128v-128h-128v-128h-256v128h-128v128h-128z" />
<glyph unicode="&#x21a8;" d="M128 0v128h256v128h-128v128h-128v128h256v384h-256v128h128v128h128v128h256v-128h128v-128h128v-128h-256v-384h256v-128h-128v-128h-128v-128h256v-128h-768z" />
<glyph unicode="&#x2202;" d="M0 128v384h128v128h128v128h384v256h-128v128h-128v-128h-256v128h128v128h384v-128h128v-128h128v-768h-128v-128h-128v-128h-512v128h-128zM256 128h256v128h128v384h-256v-128h-128v-384z" />
<glyph unicode="&#x2205;" d="M0 0v128h128v256h-128v384h128v128h512v128h128v128h256v-128h-128v-256h128v-384h-128v-128h-512v-128h-128v-128h-256zM256 512h128v256h-128v-256zM512 384h256v384h-128v-256h-128v-128z" />
<glyph unicode="&#x2206;" d="M0 128v640h128v128h128v128h128v128h128v-128h128v-128h128v-128h128v-640h-896zM256 256h384v512h-128v128h-128v-128h-128v-512z" />
<glyph unicode="&#x2208;" d="M128 256v768h128v128h128v128h384v-128h-256v-128h-128v-256h384v-128h-384v-384h128v-128h256v-128h-384v128h-128v128h-128z" />
<glyph unicode="&#x220f;" d="M0 -256v1536h896v-1536h-256v1408h-384v-1408h-256z" />
<glyph unicode="&#x2211;" d="M0 0v256h128v128h128v128h128v128h-128v128h-128v128h-128v256h896v-256h-256v128h-384v-128h128v-128h128v-128h128v-128h-128v-128h-128v-128h-128v-128h384v128h256v-256h-896z" />
<glyph unicode="&#x2212;" d="M0 512v128h896v-128h-896z" />
<glyph unicode="&#x2215;" d="M0 0v256h128v128h128v128h128v128h128v128h128v128h128v128h128v-256h-128v-128h-128v-128h-128v-128h-128v-128h-128v-128h-128v-128h-128z" />
<glyph unicode="&#x2219;" d="M384 384v256h256v-256h-256z" />
<glyph unicode="&#x221a;" d="M0 512v128h384v-384h128v1152h512v-128h-256v-1280h-384v128h-128v128h-128v256h-128z" />
<glyph unicode="&#x221e;" d="M0 384v384h128v128h768v-128h128v-384h-128v-128h-768v128h-128zM256 384h128v384h-128v-384zM640 384h128v384h-128v-384z" />
<glyph unicode="&#x221f;" d="M0 256v512h256v-384h640v-128h-896z" />
<glyph unicode="&#x2229;" d="M0 0v1024h128v128h640v-128h128v-1024h-256v1024h-384v-1024h-256z" />
<glyph unicode="&#x222b;" d="M0 0h256v-384h128v1792h128v128h384v-128h128v-256h-256v256h-128v-1792h-128v-128h-384v128h-128v384z" />
<glyph unicode="&#x2248;" d="M0 256v128h128v128h384v-128h128v128h256v-128h-128v-128h-384v128h-128v-128h-256zM0 640v128h128v128h384v-128h128v128h256v-128h-128v-128h-384v128h-128v-128h-256z" />
<glyph unicode="&#x2260;" d="M0 128v128h128v128h-128v128h256v128h128v128h-384v128h512v128h128v128h256v-128h-128v-128h128v-128h-256v-128h-128v-128h384v-128h-512v-128h-128v-128h-256z" />
<glyph unicode="&#x2261;" d="M0 128v128h896v-128h-896zM0 512v128h896v-128h-896zM0 896v128h896v-128h-896z" />
<glyph unicode="&#x2264;" d="M128 0v128h768v-128h-768zM128 640v128h128v128h128v128h128v128h256v-128h-128v-128h-128v-128h-128v-128h128v-128h128v-128h128v-128h-256v128h-128v128h-128v128h-128z" />
<glyph unicode="&#x2265;" d="M128 0v128h768v-128h-768zM256 256v128h128v128h128v128h128v128h-128v128h-128v128h-128v128h256v-128h128v-128h128v-128h128v-128h-128v-128h-128v-128h-128v-128h-256z" />
<glyph unicode="&#x2299;" d="M0 128v1024h128v128h640v-128h128v-1024h-128v-128h-640v128h-128zM256 128h384v1024h-384v-1024zM384 512v256h128v-256h-128z" />
<glyph unicode="&#x2300;" d="M0 128v1024h128v128h640v-128h128v-1024h-128v-128h-640v128h-128zM256 128h384v512h-128v-128h-128v-128h-128v-256zM256 640h128v128h128v128h128v256h-384v-512z" />
<glyph unicode="&#x2302;" d="M0 128v512h128v128h128v128h128v128h128v-128h128v-128h128v-128h128v-512h-896zM256 256h384v384h-128v128h-128v-128h-128v-384z" />
<glyph unicode="&#x2310;" d="M0 128v640h896v-128h-640v-512h-256z" />
<glyph unicode="&#x2320;" d="M384 -512v1664h128v128h384v-128h128v-256h-256v256h-128v-1664h-256z" />
<glyph unicode="&#x2321;" d="M0 128v384h256v-384h128v1408h256v-1408h-128v-128h-384v128h-128z" />
<glyph unicode="&#x2500;" d="M0 512v128h1024v-128h-1024z" />
<glyph unicode="&#x2502;" d="M384 -512v2048h256v-2048h-256z" />
<glyph unicode="&#x250c;" d="M384 -512v1152h640v-128h-384v-1024h-256z" />
<glyph unicode="&#x2510;" d="M0 512v128h640v-1152h-256v1024h-384z" />
<glyph unicode="&#x2514;" d="M384 512v1024h256v-896h384v-128h-640z" />
<glyph unicode="&#x2518;" d="M0 512v128h384v896h256v-1024h-640z" />
<glyph unicode="&#x251c;" d="M384 -512v2048h256v-896h384v-128h-384v-1024h-256z" />
<glyph unicode="&#x2524;" d="M0 512v128h384v896h256v-2048h-256v1024h-384z" />
<glyph unicode="&#x252c;" d="M0 512v128h1024v-128h-384v-1024h-256v1024h-384z" />
<glyph unicode="&#x2534;" d="M0 512v128h384v896h256v-896h384v-128h-1024z" />
<glyph unicode="&#x253c;" d="M0 512v128h384v896h256v-896h384v-128h-384v-1024h-256v1024h-384z" />
<glyph unicode="&#x2550;" d="M0 512v128h1024v-128h-1024zM0 768v128h1024v-128h-1024z" />
<glyph unicode="&#x2551;" d="M256 -512v2048h256v-2048h-256zM640 -512v2048h256v-2048h-256z" />
<glyph unicode="&#x2552;" d="M384 -512v1408h640v-128h-384v-128h384v-128h-384v-1024h-256z" />
<glyph unicode="&#x2553;" d="M256 -512v1152h768v-128h-128v-1024h-256v1024h-128v-1024h-256z" />
<glyph unicode="&#x2554;" d="M256 -512v1408h768v-128h-512v-1280h-256zM640 -512v1152h384v-128h-128v-1024h-256z" />
<glyph unicode="&#x2555;" d="M0 512v128h384v128h-384v128h640v-1408h-256v1024h-384z" />
<glyph unicode="&#x2556;" d="M0 512v128h896v-1152h-256v1024h-128v-1024h-256v1024h-256z" />
<glyph unicode="&#x2557;" d="M0 512v128h512v-1152h-256v1024h-256zM0 768v128h896v-1408h-256v1280h-640z" />
<glyph unicode="&#x2558;" d="M384 512v1024h256v-640h384v-128h-384v-128h384v-128h-640z" />
<glyph unicode="&#x2559;" d="M256 512v1024h256v-896h128v896h256v-896h128v-128h-768z" />
<glyph unicode="&#x255a;" d="M256 512v1024h256v-896h512v-128h-768zM640 768v768h256v-640h128v-128h-384z" />
<glyph unicode="&#x255b;" d="M0 512v128h384v128h-384v128h384v640h256v-1024h-640z" />
<glyph unicode="&#x255c;" d="M0 512v128h256v896h256v-896h128v896h256v-1024h-896z" />
<glyph unicode="&#x255d;" d="M0 512v128h640v896h256v-1024h-896zM0 768v128h256v640h256v-768h-512z" />
<glyph unicode="&#x255e;" d="M384 -512v2048h256v-640h384v-128h-384v-128h384v-128h-384v-1024h-256z" />
<glyph unicode="&#x255f;" d="M256 -512v2048h256v-2048h-256zM640 -512v2048h256v-896h128v-128h-128v-1024h-256z" />
<glyph unicode="&#x2560;" d="M256 -512v2048h256v-2048h-256zM640 -512v1152h384v-128h-128v-1024h-256zM640 768v768h256v-640h128v-128h-384z" />
<glyph unicode="&#x2561;" d="M0 512v128h384v128h-384v128h384v640h256v-2048h-256v1024h-384z" />
<glyph unicode="&#x2562;" d="M0 512v128h256v896h256v-2048h-256v1024h-256zM640 -512v2048h256v-2048h-256z" />
<glyph unicode="&#x2563;" d="M0 512v128h512v-1152h-256v1024h-256zM0 768v128h256v640h256v-768h-512zM640 -512v2048h256v-2048h-256z" />
<glyph unicode="&#x2564;" d="M0 512v128h1024v-128h-384v-1024h-256v1024h-384zM0 768v128h1024v-128h-1024z" />
<glyph unicode="&#x2565;" d="M0 512v128h1024v-128h-128v-1024h-256v1024h-128v-1024h-256v1024h-256z" />
<glyph unicode="&#x2566;" d="M0 512v128h512v-1152h-256v1024h-256zM0 768v128h1024v-128h-1024zM640 -512v1152h384v-128h-128v-1024h-256z" />
<glyph unicode="&#x2567;" d="M0 512v128h1024v-128h-1024zM0 768v128h384v640h256v-640h384v-128h-1024z" />
<glyph unicode="&#x2568;" d="M0 512v128h256v896h256v-896h128v896h256v-896h128v-128h-1024z" />
<glyph unicode="&#x2569;" d="M0 512v128h1024v-128h-1024zM0 768v128h256v640h256v-768h-512zM640 768v768h256v-640h128v-128h-384z" />
<glyph unicode="&#x256a;" d="M0 512v128h384v128h-384v128h384v640h256v-640h384v-128h-384v-128h384v-128h-384v-1024h-256v1024h-384z" />
<glyph unicode="&#x256b;" d="M0 512v128h256v896h256v-896h128v896h256v-896h128v-128h-128v-1024h-256v1024h-128v-1024h-256v1024h-256z" />
<glyph unicode="&#x256c;" d="M0 512v128h512v-1152h-256v1024h-256zM0 768v128h256v640h256v-768h-512zM640 -512v1152h384v-128h-128v-1024h-256zM640 768v768h256v-640h128v-128h-384z" />
<glyph unicode="&#x2580;" d="M0 640v896h1024v-896h-1024z" />
<glyph unicode="&#x2581;" d="M0 -128h1024v-256h-1024v256z" />
<glyph unicode="&#x2584;" d="M0 -512v1152h1024v-1152h-1024z" />
<glyph unicode="&#x2588;" d="M0 -512v2048h1024v-2048h-1024z" />
<glyph unicode="&#x258c;" d="M0 -512v2048h512v-2048h-512z" />
<glyph unicode="&#x2590;" d="M512 -512v2048h512v-2048h-512z" />
<glyph unicode="&#x2591;" d="M128 0v128h128v-128h-128zM128 -128h128v-128h-128v128zM128 256v128h128v-128h-128zM128 -384h128v-128h-128v128zM128 512v128h128v-128h-128zM128 768v128h128v-128h-128zM128 1024v128h128v-128h-128zM128 1280v128h128v-128h-128zM384 0h128v-128h-128v128zM384 128 v128h128v-128h-128zM384 -256h128v-128h-128v128zM384 384v128h128v-128h-128zM384 640v128h128v-128h-128zM384 896v128h128v-128h-128zM384 1152v128h128v-128h-128zM384 1408v128h128v-128h-128zM640 0v128h128v-128h-128zM640 -128h128v-128h-128v128zM640 256v128h128 v-128h-128zM640 -384h128v-128h-128v128zM640 512v128h128v-128h-128zM640 768v128h128v-128h-128zM640 1024v128h128v-128h-128zM640 1280v128h128v-128h-128zM896 0h128v-128h-128v128zM896 128v128h128v-128h-128zM896 -256h128v-128h-128v128zM896 384v128h128v-128 h-128zM896 640v128h128v-128h-128zM896 896v128h128v-128h-128zM896 1152v128h128v-128h-128zM896 1408v128h128v-128h-128z" />
<glyph unicode="&#x2592;" d="M0 0v128h128v-128h-128zM0 -128h128v-128h-128v128zM0 256v128h128v-128h-128zM0 -384h128v-128h-128v128zM0 512v128h128v-128h-128zM0 768v128h128v-128h-128zM0 1024v128h128v-128h-128zM0 1280v128h128v-128h-128zM128 0h128v-128h-128v128zM128 128v128h128v-128 h-128zM128 -256h128v-128h-128v128zM128 384v128h128v-128h-128zM128 640v128h128v-128h-128zM128 896v128h128v-128h-128zM128 1152v128h128v-128h-128zM128 1408v128h128v-128h-128zM256 0v128h128v-128h-128zM256 -128h128v-128h-128v128zM256 256v128h128v-128h-128z M256 -384h128v-128h-128v128zM256 512v128h128v-128h-128zM256 768v128h128v-128h-128zM256 1024v128h128v-128h-128zM256 1280v128h128v-128h-128zM384 0h128v-128h-128v128zM384 128v128h128v-128h-128zM384 -256h128v-128h-128v128zM384 384v128h128v-128h-128zM384 640 v128h128v-128h-128zM384 896v128h128v-128h-128zM384 1152v128h128v-128h-128zM384 1408v128h128v-128h-128zM512 0v128h128v-128h-128zM512 -128h128v-128h-128v128zM512 256v128h128v-128h-128zM512 -384h128v-128h-128v128zM512 512v128h128v-128h-128zM512 768v128h128 v-128h-128zM512 1024v128h128v-128h-128zM512 1280v128h128v-128h-128zM640 0h128v-128h-128v128zM640 128v128h128v-128h-128zM640 -256h128v-128h-128v128zM640 384v128h128v-128h-128zM640 640v128h128v-128h-128zM640 896v128h128v-128h-128zM640 1152v128h128v-128 h-128zM640 1408v128h128v-128h-128zM768 0v128h128v-128h-128zM768 -128h128v-128h-128v128zM768 256v128h128v-128h-128zM768 -384h128v-128h-128v128zM768 512v128h128v-128h-128zM768 768v128h128v-128h-128zM768 1024v128h128v-128h-128zM768 1280v128h128v-128h-128z M896 0h128v-128h-128v128zM896 128v128h128v-128h-128zM896 -256h128v-128h-128v128zM896 384v128h128v-128h-128zM896 640v128h128v-128h-128zM896 896v128h128v-128h-128zM896 1152v128h128v-128h-128zM896 1408v128h128v-128h-128z" />
<glyph unicode="&#x2593;" d="M0 0h128v128h-128v128h128v128h-128v128h128v128h-128v128h128v128h-128v128h128v128h-128v128h128v128h-128v128h256v-128h128v128h384v-128h128v128h128v-2048h-384v128h-128v-128h-384v128h-128v128h128v128h-128v128zM256 0v-128h128v128h-128zM256 128h128v128h-128 v-128zM256 -256v-128h128v128h-128zM256 384h128v128h-128v-128zM256 640h128v128h-128v-128zM256 896h128v128h-128v-128zM256 1152h128v128h-128v-128zM512 0h128v128h-128v-128zM512 -128v-128h128v128h-128zM512 256h128v128h-128v-128zM512 512h128v128h-128v-128z M512 768h128v128h-128v-128zM512 1024h128v128h-128v-128zM512 1280h128v128h-128v-128zM768 0v-128h128v128h-128zM768 128h128v128h-128v-128zM768 -256v-128h128v128h-128zM768 384h128v128h-128v-128zM768 640h128v128h-128v-128zM768 896h128v128h-128v-128zM768 1152 h128v128h-128v-128z" />
<glyph unicode="&#x25a0;" d="M128 128v896h640v-896h-640z" />
<glyph unicode="&#x25a1;" d="M128 128v896h768v-896h-768zM384 256h256v640h-256v-640z" />
<glyph unicode="&#x25aa;" d="M128 256v512h640v-512h-640z" />
<glyph unicode="&#x25ab;" d="M128 256v512h640v-512h-640zM384 384h128v256h-128v-256z" />
<glyph unicode="&#x25ac;" d="M0 0v512h896v-512h-896z" />
<glyph unicode="&#x25b2;" d="M0 128v256h128v256h128v256h128v128h128v-128h128v-256h128v-256h128v-256h-896z" />
<glyph unicode="&#x25ba;" d="M0 0v1408h128v-128h128v-128h128v-128h128v-128h128v-128h256v-128h-256v-128h-128v-128h-128v-128h-128v-128h-128v-128h-128z" />
<glyph unicode="&#x25bc;" d="M0 768v256h896v-256h-128v-256h-128v-256h-128v-128h-128v128h-128v256h-128v256h-128z" />
<glyph unicode="&#x25c4;" d="M0 640v128h256v128h128v128h128v128h128v128h128v128h128v-1408h-128v128h-128v128h-128v128h-128v128h-128v128h-256z" />
<glyph unicode="&#x25ca;" d="M0 512v128h128v128h128v128h128v128h128v-128h128v-128h128v-128h128v-128h-128v-128h-128v-128h-128v-128h-128v128h-128v128h-128v128h-128zM256 512h128v-128h128v128h128v128h-128v128h-128v-128h-128v-128z" />
<glyph unicode="&#x25cb;" d="M128 256v512h128v128h512v-128h128v-512h-128v-128h-512v128h-128zM256 384h128v-128h256v128h128v256h-128v128h-256v-128h-128v-256z" />
<glyph unicode="&#x25cf;" d="M128 256v512h128v128h512v-128h128v-512h-128v-128h-512v128h-128z" />
<glyph unicode="&#x25d8;" d="M0 -512v2048h1024v-2048h-1024zM256 384h128v-128h256v128h128v256h-128v128h-256v-128h-128v-256z" />
<glyph unicode="&#x25d9;" d="M0 -512v2048h1024v-2048h-1024zM128 256h128v-128h512v128h128v512h-128v128h-512v-128h-128v-512zM256 384v256h128v128h256v-128h128v-256h-128v-128h-256v128h-128z" />
<glyph unicode="&#x25e6;" d="M128 384v256h128v128h384v-128h128v-256h-128v-128h-384v128h-128zM384 384h128v256h-128v-256z" />
<glyph unicode="&#x25fc;" horiz-adv-x="896" d="M0 0v896h896v-896h-896z" />
<glyph unicode="&#x263a;" d="M0 128v1024h128v-1024h-128zM128 0v128h768v-128h-768zM128 1152v128h768v-128h-768zM256 512v128h512v-128h-128v-128h-256v128h-128zM256 896v128h128v-128h-128zM640 896v128h128v-128h-128zM896 128v1024h128v-1024h-128z" />
<glyph unicode="&#x263b;" d="M0 128v1024h128v128h768v-128h128v-1024h-128v-128h-768v128h-128zM256 512h128v-128h256v128h128v128h-512v-128zM256 896h128v128h-128v-128zM640 896h128v128h-128v-128z" />
<glyph unicode="&#x263c;" d="M0 256v128h256v-128h-256zM0 512v128h256v128h128v384h256v-384h128v-128h256v-128h-256v-128h-128v-384h-256v384h-128v128h-256zM0 768v128h256v-128h-256zM384 512h256v128h-256v-128zM768 256v128h256v-128h-256zM768 768v128h256v-128h-256z" />
<glyph unicode="&#x2640;" d="M128 256v128h256v128h-128v128h-128v512h128v128h512v-128h128v-512h-128v-128h-128v-128h256v-128h-256v-256h-256v256h-256zM384 640h256v512h-256v-512z" />
<glyph unicode="&#x2642;" d="M0 128v512h128v128h128v128h128v128h128v128h-128v128h512v-512h-128v256h-128v-128h-128v-128h128v-128h128v-512h-128v-128h-512v128h-128zM256 128h256v512h-256v-512z" />
<glyph unicode="&#x2660;" d="M0 512v256h128v128h128v128h128v128h256v-128h128v-128h128v-128h128v-256h-128v-128h-256v-256h128v-128h-512v128h128v256h-256v128h-128z" />
<glyph unicode="&#x2663;" d="M0 384v384h256v256h128v128h256v-128h128v-256h256v-384h-384v384h-256v-384h-384zM256 0v128h128v256h256v-256h128v-128h-512z" />
<glyph unicode="&#x2665;" d="M0 384v512h128v128h256v-128h128v128h256v-128h128v-512h-128v-128h-128v-128h-128v-128h-128v128h-128v128h-128v128h-128z" />
<glyph unicode="&#x2666;" d="M0 512v128h128v128h128v128h128v128h128v-128h128v-128h128v-128h128v-128h-128v-128h-128v-128h-128v-128h-128v128h-128v128h-128v128h-128z" />
<glyph unicode="&#x266a;" d="M0 0v256h128v128h128v896h768v-384h-512v-768h-128v-128h-384zM512 1024h256v128h-256v-128z" />
<glyph unicode="&#x266b;" d="M0 -128v384h128v1024h896v-1152h-128v-128h-256v384h128v512h-384v-896h-128v-128h-256zM384 1024h384v128h-384v-128z" />
<glyph unicode="&#x2713;" d="M0 256v256h128v-128h128v-128h128v256h128v512h128v384h256v-384h-128v-512h-128v-384h-128v-128h-256v128h-128v128h-128z" />
<glyph unicode="&#xfb01;" d="M0 0v128h128v512h-128v128h128v384h128v128h640v-256h-256v128h-256v-384h512v-640h128v-128h-384v640h-256v-512h128v-128h-512z" />
<glyph unicode="&#xfb02;" d="M0 0v128h128v512h-128v128h128v384h128v128h640v-1152h128v-128h-384v1152h-256v-384h128v-128h-128v-512h128v-128h-512z" />
<glyph unicode="&#xfffd;" d="M0 -512v1408h256v256h384v-256h-128v-128h-128v-384h256v384h128v128h128v256h-128v128h-640v-128h-128v384h1024v-2048h-1024zM384 0h256v256h-256v-256z" />
</font>
</defs>
</svg>
